<?xml version="1.0" standalone="no"?>
<!DOCTYPE svg PUBLIC "-//W3C//DTD SVG 1.1//EN" "http://www.w3.org/Graphics/SVG/1.1/DTD/svg11.dtd">
<svg xmlns="http://www.w3.org/2000/svg">
<defs >
<font id="NotoSansMono" horiz-adv-x="645" ><font-face
    font-family="Noto Sans Mono Black"
    units-per-em="1000"
    panose-1="2 11 5 9 4 5 4 2 2 4"
    ascent="1069"
    descent="-293"
    alphabetic="0" />
<glyph unicode=" " horiz-adv-x="600" />
<glyph unicode="!" horiz-adv-x="600" d="M224 252L199 714H410L385 252H224ZM304 -12Q262 -12 232 10T201 81Q201 133 231 154T304 175Q345 175 375 154T405 81Q405 32 375 10T304 -12Z" />
<glyph unicode="&quot;" horiz-adv-x="600" d="M346 456L326 714H500L480 456H346ZM120 456L100 714H274L254 456H120Z" />
<glyph unicode="#" horiz-adv-x="600" d="M82 0L113 191H10V310H133L148 402H38V524H168L199 714H323L291 524H362L393 714H517L485 524H590V402H466L451 310H563V191H432L400 0H276L308 191H236L205 0H82ZM256 310H327L342 402H271L256 310Z" />
<glyph unicode="$" horiz-adv-x="600" d="M263 23Q208 25 160 36T71 65V213Q112 191 164 175T263 156V299Q204 320 161 346T94 411T70 506Q70 565 94 605T161 668T263 696V760H344V697Q394 694 437 682T523 651L482 523Q450 540 414 549T344 563V426Q405 405 446
381T509 321T530 232Q530 152 484 96T344 26V-58H263V23ZM344 161Q367 168 377 181T388 219Q388 233 384 242T370 258T344 272V161ZM263 562Q246 559 236 552T220 535T215 508Q215 495 220 486T235 470T263 455V562Z" />
<glyph unicode="%" horiz-adv-x="600" d="M47 -10L419 724H551L179 -10H47ZM455 -10Q388 -10 351 33T313 159Q313 242 350 285T455 329Q526 329 563 285T600 159Q600 79 563 35T455 -10ZM458 94Q468 94 473 108T478 159Q478 196 473 210T458 225Q446 225 441 211T435
159Q435 123 440 109T458 94ZM142 385Q75 385 38 428T0 554Q0 637 37 680T142 724Q213 724 250 680T287 554Q287 474 250 430T142 385ZM144 489Q155 489 160 503T165 554Q165 591 160 605T144 620Q133 620 128 606T122 554Q122 518 127 504T144 489Z" />
<glyph unicode="&amp;" horiz-adv-x="600" d="M216 -10Q153 -10 110 16T43 87T20 184Q20 246 46 291T112 371T190 434Q213 451 238 470T282 513T300 563Q300 582 290 593T261 605Q242 605 231 593T219 555Q219 532 229 510T252 468T277 434L590 0H418L165 345Q148
368 129 400T96 470T82 553Q82 631 130 677T260 723Q343 723 388 677T433 557Q433 502 409 465T346 398T261 331Q231 307 211 288T182 249T172 206Q172 175 189 154T241 133Q273 133 302 152T354 202T395 269T422 340T433 401H567Q564 350 547 293T500 183T427
86T331 16T216 -10Z" />
<glyph unicode="&apos;" horiz-adv-x="600" d="M233 456L213 714H387L367 456H233Z" />
<glyph unicode="(" horiz-adv-x="600" d="M315 -178Q248 -91 214 21T180 264Q180 396 214 511T315 714H470Q404 619 374 505T343 265Q343 144 374 32T470 -178H315Z" />
<glyph unicode=")" horiz-adv-x="600" d="M285 714Q353 627 386 515T420 272Q420 140 386 25T285 -178H130Q196 -83 226 32T257 271Q257 392 226 504T130 714H285Z" />
<glyph unicode="*" horiz-adv-x="600" d="M378 300L298 433L226 302L112 370L209 497L65 518L94 645L245 601L227 762H371L354 601L508 647L535 520L390 497L488 374L378 300Z" />
<glyph unicode="+" horiz-adv-x="600" d="M233 111V287H70V418H233V597H366V418H530V287H366V111H233Z" />
<glyph unicode="," horiz-adv-x="600" d="M184 -160Q194 -114 203 -57T221 56T233 153H402L409 141Q402 114 393 75T371 -8T347 -92T322 -160H184Z" />
<glyph unicode="-" horiz-adv-x="600" d="M150 195V345H450V195H150Z" />
<glyph unicode="." horiz-adv-x="600" d="M302 -7Q261 -7 231 14T201 84Q201 134 231 155T302 176Q342 176 371 155T400 84Q400 35 371 14T302 -7Z" />
<glyph unicode="/" horiz-adv-x="600" d="M80 -10L365 724H520L235 -10H80Z" />
<glyph unicode="0" horiz-adv-x="600" d="M299 -10Q212 -10 155 32T69 157T40 356Q40 478 66 559T150 682T299 724Q387 724 445 682T531 557T560 356Q560 275 547 208T505 92T425 17T299 -10ZM201 97L125 179L385 607L460 516L201 97ZM299 138Q361 138 383 191T405
356Q405 430 396 479T363 552T299 577Q259 577 236 553T203 479T193 356Q193 245 215 192T299 138Z" />
<glyph unicode="1" horiz-adv-x="600" d="M229 365Q229 381 229 412T229 477T231 533Q213 521 199 512T171 495L110 462L40 595L248 714H405V0H229V365ZM94 0V130L230 142H405L540 130V0H94Z" />
<glyph unicode="2" horiz-adv-x="600" d="M47 0V123L196 265Q261 327 301 366T359 436T378 499Q378 540 354 558T290 576Q246 576 211 555T133 492L40 609Q81 649 121 674T206 712T302 724Q375 724 434 701T529 629T564 509Q564 467 549 428T496 345T392 243L291
155V150H565V0H47Z" />
<glyph unicode="3" horiz-adv-x="600" d="M256 -9Q211 -9 162 0T62 28V177Q109 155 160 143T252 130Q308 130 336 152T364 214Q364 240 349 256T297 281T193 289H153V431H194Q256 431 291 439T341 466T356 511Q356 549 334 564T278 579Q242 579 203 566T131 534L60
655Q107 687 166 705T294 724Q365 724 415 704T491 645T518 549Q518 500 500 465T454 407T395 370V367Q434 360 467 342T520 291T540 208Q540 144 504 95T405 19T256 -9Z" />
<glyph unicode="4" horiz-adv-x="600" d="M315 0V142H30V276L317 714H481V279H570V142H481V0H315ZM180 279H315V376Q315 384 315 396T315 422T315 454T316 488H311Q299 466 286 446T263 410L180 279Z" />
<glyph unicode="5" horiz-adv-x="600" d="M251 -10Q199 -10 149 -1T55 28V183Q95 166 143 152T247 138Q299 138 329 162T360 232Q360 261 346 281T306 312T240 323Q214 323 184 319T128 306L66 341L90 714H501V564H262L254 459Q279 464 299 466T338 468Q405 468
451 441T520 363T544 245Q544 161 508 104T407 19T251 -10Z" />
<glyph unicode="6" horiz-adv-x="600" d="M309 -10Q251 -10 203 10T119 69T64 166T45 302Q45 381 60 456T112 591T217 688T390 724Q416 724 448 722T509 716V570Q484 575 459 577T410 579Q364 579 329 568T268 533T230 475T213 393H218Q230 419 251 437T300 466T362
476Q450 476 502 415T554 244Q554 166 523 109T437 21T309 -10ZM305 139Q335 139 355 162T375 235Q375 282 360 307T307 332Q280 332 263 319T236 283T227 233Q227 215 230 201T240 175T256 155T278 143T305 139Z" />
<glyph unicode="7" horiz-adv-x="600" d="M119 0L373 564H40V714H560V599L307 0H119Z" />
<glyph unicode="8" horiz-adv-x="600" d="M294 -10Q212 -10 158 14T76 82T49 188Q49 232 64 265T107 325T173 373Q142 396 119 423T84 481T72 551Q72 608 99 646T177 704T300 724Q372 724 424 705T506 646T535 550Q535 489 501 447T405 375Q449 351 481 324T531
262T549 183Q549 126 521 83T436 15T294 -10ZM299 126Q335 126 359 142T383 190Q383 213 370 229T337 260T292 291Q271 278 254 263T226 231T216 194Q216 159 237 143T299 126ZM299 458Q319 470 334 481T357 505T366 536Q366 564 346 576T303 589Q274 589 257 575T239
536Q239 519 246 506T267 481T299 458Z" />
<glyph unicode="9" horiz-adv-x="600" d="M208 -10Q182 -10 150 -8T89 -2V144Q115 140 140 138T188 135Q234 135 270 146T331 181T370 240T387 321H382Q370 296 349 277T299 248T238 238Q152 238 99 299T45 470Q45 549 75 605T161 693T291 724Q350 724 398 704T481
645T536 548T555 412Q555 349 546 288T515 173T453 78T353 14T208 -10ZM293 382Q320 382 337 395T363 432T372 481Q372 502 367 519T352 548T328 568T295 575Q264 575 244 552T223 479Q223 433 240 408T293 382Z" />
<glyph unicode=":" horiz-adv-x="600" d="M302 376Q261 376 231 397T201 467Q201 517 231 538T302 559Q342 559 371 538T400 467Q400 418 371 397T302 376ZM302 -7Q261 -7 231 14T201 84Q201 134 231 155T302 176Q342 176 371 155T400 84Q400 35 371 14T302 -7Z" />
<glyph unicode=";" horiz-adv-x="600" d="M176 -161Q186 -115 195 -58T213 55T225 152H394L401 140Q394 113 385 74T363 -9T339 -93T314 -161H176ZM319 375Q276 375 246 397T215 468Q215 520 245 541T319 562Q360 562 389 541T419 468Q419 419 390 397T319 375Z" />
<glyph unicode="&lt;" horiz-adv-x="600" d="M520 100L80 313V397L520 623V478L258 358L520 244V100Z" />
<glyph unicode="=" horiz-adv-x="600" d="M70 389V529H530V389H70ZM70 156V296H530V156H70Z" />
<glyph unicode="&gt;" horiz-adv-x="600" d="M80 100V244L342 358L80 478V623L520 397V313L80 100Z" />
<glyph unicode="?" horiz-adv-x="600" d="M199 294Q199 324 206 348T233 395T288 439Q317 457 330 472T346 502T350 530Q350 552 335 565T295 578Q261 578 224 564T138 522L70 655Q125 687 182 705T309 724Q379 724 428 702T504 640T530 546Q530 508 520 475T487
415T426 362Q401 346 387 333T367 306T361 277V252H199V294ZM281 -12Q238 -12 208 10T177 81Q177 133 207 154T281 175Q322 175 351 154T381 81Q381 32 352 10T281 -12Z" />
<glyph unicode="@" horiz-adv-x="600" d="M319 -88Q219 -88 148 -42T38 88T0 287Q0 383 22 461T87 596T187 683T317 714Q402 714 465 671T564 550T600 369Q600 319 592 272T566 188T521 130T458 108Q433 108 411 121T376 166H371Q352 138 329 123T275 108Q214
108 181 160T148 297Q148 362 168 412T228 491T325 520Q362 520 396 511T456 490L449 299Q449 290 449 277T448 258Q448 229 452 217T464 204Q475 204 483 225T497 282T502 361Q502 477 456 546T320 615Q253 615 203 574T126 461T98 293Q98 207 122 143T196 44T322
9Q366 9 408 18T494 46V-49Q457 -68 412 -78T319 -88ZM292 204Q320 204 332 238T348 349L351 420Q344 422 339 422T328 423Q301 423 285 407T260 362T252 297Q252 249 262 227T292 204Z" />
<glyph unicode="A" horiz-adv-x="600" d="M5 0L185 717H414L595 0H421L335 423Q330 449 324 481T312 544T302 597Q299 575 293 544T281 481T268 423L175 0H5ZM181 147L202 288H394L411 147H181Z" />
<glyph unicode="B" horiz-adv-x="600" d="M60 0V714H300Q434 714 495 670T557 539Q557 468 525 429T454 379V374Q486 365 512 346T554 294T570 211Q570 145 540 98T456 26T325 0H60ZM310 138Q360 138 382 164T405 224Q405 247 395 265T364 294T307 305H218V138H310ZM301
434Q349 434 371 456T394 510Q394 541 371 558T298 576H218V434H301Z" />
<glyph unicode="C" horiz-adv-x="600" d="M333 -10Q236 -10 171 34T73 158T40 348Q40 437 63 507T130 625T236 699T378 724Q425 724 470 715T565 685L518 537Q483 554 447 561T381 569Q335 569 303 554T253 509T226 439T217 347Q217 274 232 230T280 165T363 144Q403
144 451 156T538 192V31Q491 10 438 0T333 -10Z" />
<glyph unicode="D" horiz-adv-x="600" d="M40 0V714H256Q359 714 431 675T541 559T580 372Q580 251 539 168T422 43T242 0H40ZM244 145Q325 145 364 201T403 365Q403 434 387 479T337 547T255 569H206V145H244Z" />
<glyph unicode="E" horiz-adv-x="600" d="M60 0V714H540V564H231V442H527V292H231V150H540V0H60Z" />
<glyph unicode="F" horiz-adv-x="600" d="M60 0V714H540V564H231V415H528V265H231V0H60Z" />
<glyph unicode="G" horiz-adv-x="600" d="M353 -10Q239 -10 165 33T56 158T20 350Q20 467 57 551T169 679T351 724Q413 724 465 711T558 679L506 537Q473 554 439 563T368 573Q312 573 273 549T213 476T193 355Q193 292 209 244T259 170T345 143Q357 143 371 145T403
151V279H320V418H560V33Q503 10 454 0T353 -10Z" />
<glyph unicode="H" horiz-adv-x="600" d="M40 0V714H217V447H383V714H560V0H383V297H217V0H40Z" />
<glyph unicode="I" horiz-adv-x="600" d="M70 0V125L215 141V573L70 589V714H530V589L384 573V141L530 125V0H70Z" />
<glyph unicode="J" horiz-adv-x="600" d="M247 -10Q210 -10 163 -6T65 7V160Q117 149 156 146T214 142Q267 142 294 159T332 209T343 291V714H515V267Q515 171 490 110T406 19T247 -10Z" />
<glyph unicode="K" horiz-adv-x="600" d="M40 0V714H210V388Q220 411 230 431T252 472L387 714H575L378 395L573 0H378L257 262L210 220V0H40Z" />
<glyph unicode="L" horiz-adv-x="600" d="M75 0V714H250V155H540V0H75Z" />
<glyph unicode="M" horiz-adv-x="600" d="M30 0V714H255L296 308H299L343 714H570V0H421V160Q421 171 423 201T428 274T435 361T442 447T448 516T450 551H446L382 158H216L150 552H146Q146 545 148 517T154 447T161 361T169 274T175 201T177 159V0H30Z" />
<glyph unicode="N" horiz-adv-x="600" d="M40 0V714H277L412 157H416Q413 191 411 221T407 277T404 328T403 376V714H560V0H329L190 552H186Q190 501 192 467T195 410T196 368T197 328V0H40Z" />
<glyph unicode="O" horiz-adv-x="600" d="M300 -10Q228 -10 175 14T88 85T37 200T20 358Q20 478 50 559T143 683T300 725Q372 725 425 701T512 629T563 514T580 357Q580 270 564 202T513 86T426 15T300 -10ZM300 140Q338 140 360 163T391 235T401 360Q401 470
380 522T300 574Q263 574 241 553T209 484T199 358Q199 281 208 233T240 162T300 140Z" />
<glyph unicode="P" horiz-adv-x="600" d="M60 0V714H324Q447 714 508 655T570 486Q570 419 545 362T465 271T319 237H225V0H60ZM299 382Q329 382 350 393T383 428T395 484Q395 522 374 545T302 569H225V382H299Z" />
<glyph unicode="Q" horiz-adv-x="600" d="M394 -180L300 27L441 93L580 -180H394ZM300 -10Q228 -10 175 14T88 85T37 200T20 358Q20 478 50 559T143 683T300 725Q372 725 425 701T512 629T563 514T580 357Q580 270 564 202T513 86T426 15T300 -10ZM300 140Q338
140 360 163T391 235T401 360Q401 470 380 522T300 574Q263 574 241 553T209 484T199 358Q199 281 208 233T240 162T300 140Z" />
<glyph unicode="R" horiz-adv-x="600" d="M60 0V714H285Q374 714 431 691T517 621T546 507Q546 462 534 427T498 363T437 311L595 0H409L294 258H224V0H60ZM284 403Q311 403 333 412T368 440T381 490Q381 527 359 548T289 569H224V403H284Z" />
<glyph unicode="S" horiz-adv-x="600" d="M275 -10Q219 -10 169 0T60 35V203Q122 167 177 154T280 140Q309 140 330 145T362 162T374 196Q374 221 359 235T314 265T236 307Q182 338 146 367T91 435T73 528Q73 590 97 634T176 701T318 725Q391 725 448 711T551
673L496 534Q450 557 409 565T335 574Q311 574 292 569T263 553T252 519Q252 501 262 488T302 457T387 411Q432 388 470 362T531 297T554 198Q554 158 541 121T497 55T411 8T275 -10Z" />
<glyph unicode="T" horiz-adv-x="600" d="M212 0V564H20V714H580V564H387V0H212Z" />
<glyph unicode="U" horiz-adv-x="600" d="M300 -10Q220 -10 162 21T72 112T40 259V714H215V273Q215 225 224 197T251 157T297 145Q325 145 344 157T374 197T385 274V714H560V263Q560 178 530 117T442 23T300 -10Z" />
<glyph unicode="V" horiz-adv-x="600" d="M186 0L5 714H180L270 298Q275 278 280 250T292 192T301 140H306Q310 163 315 192T325 250T334 298L420 714H595L415 0H186Z" />
<glyph unicode="W" horiz-adv-x="600" d="M41 0L5 714H148Q154 622 157 565T163 474T166 415T167 364Q167 346 167 326T167 285T166 240T166 192T165 141H170Q172 163 176 197T185 268T195 339T203 395L226 552H374L394 394Q397 372 400 338T408 267T417 196T424
140H429Q429 169 429 195T429 246T428 292T427 335T427 375Q427 402 427 423T429 468T432 522T437 599T445 714H595L555 0H342L325 143Q322 172 317 214T308 300T300 371H297Q295 343 291 300T282 215T274 143L260 0H41Z" />
<glyph unicode="X" horiz-adv-x="600" d="M15 0L215 367L29 714H210L299 534L384 714H568L384 370L585 0H398L299 204L197 0H15Z" />
<glyph unicode="Y" horiz-adv-x="600" d="M213 0V276L15 714H199L302 460L403 714H585L388 276V0H213Z" />
<glyph unicode="Z" horiz-adv-x="600" d="M60 0V119L352 569H76V714H543V595L260 150H550V0H60Z" />
<glyph unicode="[" horiz-adv-x="600" d="M220 -168V734H475V610H373V-44H475V-168H220Z" />
<glyph unicode="\" horiz-adv-x="600" d="M520 -10H365L80 724H235L520 -10Z" />
<glyph unicode="]" horiz-adv-x="600" d="M380 734V-168H125V-44H227V610H125V734H380Z" />
<glyph unicode="^" horiz-adv-x="600" d="M30 244L250 716H333L570 244H425L294 511L173 244H30Z" />
<glyph unicode="_" horiz-adv-x="600" d="M0 -182V-42H600V-182H0Z" />
<glyph unicode="`" horiz-adv-x="600" d="M326 606Q310 618 286 638T236 680T187 722T150 756V766H346Q359 745 378 717T417 663T449 620V606H326Z" />
<glyph unicode="a" horiz-adv-x="600" d="M227 -10Q132 -10 86 39T40 165Q40 229 68 267T147 325T264 346L379 350V369Q379 398 358 412T289 427Q257 427 216 420T134 393L81 513Q134 539 190 551T307 563Q430 563 487 517T545 377V0H415L396 66H392Q364 31 333
15T274 -5T227 -10ZM271 125Q299 125 323 135T363 165T379 217V244L321 243Q281 243 255 237T215 217T202 179Q202 152 219 139T271 125Z" />
<glyph unicode="b" horiz-adv-x="600" d="M365 -10Q326 -10 288 4T217 56H205L175 0H45V760H217V587Q217 577 215 550T210 480H217Q246 524 286 543T372 563Q428 563 466 539T527 474T560 383T570 279Q570 224 559 172T524 79T461 14T365 -10ZM303 130Q347 130
371 166T395 279Q395 353 372 387T304 422Q263 422 240 390T217 278Q217 194 241 162T303 130Z" />
<glyph unicode="c" horiz-adv-x="600" d="M327 -10Q237 -10 178 22T90 116T60 270Q60 360 89 425T178 527T335 563Q385 563 435 553T530 520L478 392Q432 410 403 416T348 422Q309 422 283 406T244 359T230 280Q230 226 246 193T290 145T353 130Q382 130 424 140T509
181V32Q466 10 420 0T327 -10Z" />
<glyph unicode="d" horiz-adv-x="600" d="M226 -10Q171 -10 134 14T73 78T40 170T30 276Q30 353 51 418T117 523T235 563Q265 563 293 555T347 528T392 480H396Q391 512 388 533T384 570T383 606V760H555V0H425L391 70H383Q363 42 338 24T284 -2T226 -10ZM301
130Q355 130 376 166T398 259V273Q398 318 391 351T363 403T305 422Q257 422 232 383T206 272Q206 197 232 164T301 130Z" />
<glyph unicode="e" horiz-adv-x="600" d="M336 -10Q238 -10 172 24T73 122T40 277Q40 364 70 428T159 528T306 563Q387 563 443 531T529 439T559 298V222H204Q207 189 227 168T283 135T362 124Q407 124 453 135T538 170V30Q488 7 434 -1T336 -10ZM400 339Q400
369 388 391T355 425T305 437Q259 437 235 409T207 339H400Z" />
<glyph unicode="f" horiz-adv-x="600" d="M197 0V413H44V508L197 552V581Q197 638 223 679T302 742T438 765Q471 765 508 760T590 741L550 606Q521 617 495 619T454 622Q409 622 391 608T372 560V553H538V413H372V0H197Z" />
<glyph unicode="g" horiz-adv-x="600" d="M250 -245Q209 -245 162 -239T63 -214V-68Q120 -89 165 -98T250 -107Q317 -107 352 -83T388 -2V3Q388 22 388 36T388 67H384Q355 21 319 6T238 -10Q139 -10 85 64T30 275Q30 418 88 490T236 563Q283 563 320 543T387 482H390L430
552H555V25Q555 -64 524 -124T426 -214T250 -245ZM302 130Q326 130 344 138T373 163T390 203T396 257V273Q396 322 387 355T356 405T300 422Q253 422 228 386T203 272Q203 207 226 169T302 130Z" />
<glyph unicode="h" horiz-adv-x="600" d="M45 0V760H220V645Q220 604 217 564T211 483H221Q239 510 260 528T309 554T373 563Q468 563 514 508T560 359V0H385V301Q385 360 369 391T308 422Q279 422 259 406T230 351T220 241V0H45Z" />
<glyph unicode="i" horiz-adv-x="600" d="M40 0V124L226 140V413L83 427V553H401V140L560 124V0H40ZM313 601Q262 601 235 623T208 690Q208 732 234 754T313 777Q366 777 391 755T416 690Q416 649 392 625T313 601Z" />
<glyph unicode="j" horiz-adv-x="600" d="M207 -245Q167 -245 122 -239T30 -220V-83Q57 -90 83 -94T133 -100T172 -102Q212 -102 233 -91T262 -51T271 28V413L100 426V553H446V-12Q446 -129 392 -187T207 -245ZM350 601Q299 601 272 623T245 690Q245 732 271 754T350
777Q403 777 428 755T453 690Q453 649 429 625T350 601Z" />
<glyph unicode="k" horiz-adv-x="600" d="M40 0V760H215V460Q215 436 214 406T211 345T206 290H210Q228 317 243 341T281 396L392 553H586L418 329L595 0H402L299 210L215 140V0H40Z" />
<glyph unicode="l" horiz-adv-x="600" d="M40 0V122L226 140V620L79 633V760H401V140L560 122V0H40Z" />
<glyph unicode="m" horiz-adv-x="600" d="M20 0V553H139L156 481H166Q175 508 189 526T223 554T270 563Q317 563 338 538T364 469H370Q390 512 414 537T483 563Q527 563 547 538T574 467T580 358V0H433V355Q433 380 430 394T421 415T404 422Q390 422 383 413T374
389T371 354V0H229V355Q229 380 227 394T218 415T201 422Q187 422 180 413T170 389T167 355V0H20Z" />
<glyph unicode="n" horiz-adv-x="600" d="M45 0V553H175L198 483H208Q225 509 248 526T303 553T374 563Q470 563 515 510T560 359V0H385V301Q385 366 367 394T311 422Q259 422 240 375T220 241V0H45Z" />
<glyph unicode="o" horiz-adv-x="600" d="M305 -10Q237 -10 186 11T100 70T48 162T30 281Q30 363 59 426T146 526T294 563Q381 563 443 527T537 425T570 269Q570 207 554 156T504 67T422 10T305 -10ZM300 130Q336 130 358 148T390 199T401 275Q401 319 391 352T358
403T300 422Q246 422 223 380T200 275Q200 231 210 199T243 148T300 130Z" />
<glyph unicode="p" horiz-adv-x="600" d="M45 -240V553H170L208 481H217Q236 511 260 529T312 555T371 563Q427 563 465 540T527 476T560 386T570 283Q570 196 546 130T476 27T362 -10Q337 -10 312 -4T262 17T217 56H208Q210 43 213 15T217 -33V-240H45ZM308 130Q353
130 374 168T395 279Q395 350 375 386T307 422Q264 422 241 390T217 292V278Q217 201 242 166T308 130Z" />
<glyph unicode="q" horiz-adv-x="600" d="M383 -11Q383 -2 383 6T385 29T389 70H383Q358 27 316 9T228 -10Q173 -10 135 14T74 78T41 170T30 276Q30 329 40 380T73 472T135 538T234 563Q275 563 317 547T392 483H396L430 553H555V-240H383V-11ZM297 130Q351 130
373 167T396 256V273Q396 350 372 386T299 422Q253 422 229 386T205 273Q205 202 227 166T297 130Z" />
<glyph unicode="r" horiz-adv-x="600" d="M30 0V124L176 140V413L53 427V553H296L323 463H331Q348 506 386 534T480 563Q494 563 520 561T586 548L545 383Q528 391 503 394T462 397Q425 397 397 381T352 332T336 246V140L490 124V0H30Z" />
<glyph unicode="s" horiz-adv-x="600" d="M263 -10Q215 -10 166 -3T70 21V175Q124 150 175 138T272 125Q304 125 328 132T353 160Q353 177 336 187T290 207T221 233Q174 253 143 275T96 326T80 396Q80 453 108 490T188 545T313 563Q363 563 413 554T520 521L465
390Q425 411 387 419T318 428Q287 428 269 421T250 396Q250 384 261 376T299 359T371 332Q422 313 456 293T507 244T524 171Q524 118 498 77T414 13T263 -10Z" />
<glyph unicode="t" horiz-adv-x="600" d="M370 -10Q291 -10 246 14T181 86T162 204V413H24V498L180 552L207 677H337V553H528V413H337V230Q337 185 352 165T387 140T421 135Q446 135 469 139T530 157V18Q486 3 448 -3T370 -10Z" />
<glyph unicode="u" horiz-adv-x="600" d="M226 -11Q129 -11 85 42T40 193V553H215V247Q215 189 233 160T294 130Q331 130 349 149T374 202T380 276V553H555V0H425L402 69H392Q375 43 352 25T297 -2T226 -11Z" />
<glyph unicode="v" horiz-adv-x="600" d="M202 0L10 553H195L278 237Q286 208 289 193T298 152H301Q306 178 310 193T321 237L405 553H590L391 0H202Z" />
<glyph unicode="w" horiz-adv-x="600" d="M64 0L0 553H155L165 283Q166 266 166 242T166 194T167 153H173Q174 169 176 186T181 220T187 255L232 485H372L413 255Q417 236 419 220T423 187T427 153H433Q434 171 434 193T434 239T436 281L449 553H600L536 0H343L318
166Q313 203 309 240T302 308H296Q294 277 289 240T278 166L252 0H64Z" />
<glyph unicode="x" horiz-adv-x="600" d="M10 0L178 282L18 553H219L298 404L382 553H582L416 281L590 0H388L296 159L213 0H10Z" />
<glyph unicode="y" horiz-adv-x="600" d="M125 -245Q107 -245 88 -243T48 -237V-104Q62 -107 75 -108T101 -110Q132 -110 155 -101T196 -73T222 -27L234 7L10 553H198L291 262Q297 243 302 222T313 171H316Q319 189 322 207T328 240T334 263L411 553H590L379 -55Q358
-117 325 -159T242 -223T125 -245Z" />
<glyph unicode="z" horiz-adv-x="600" d="M55 0V103L321 415H70V553H536V441L277 138H545V0H55Z" />
<glyph unicode="{" horiz-adv-x="600" d="M475 -168Q381 -168 329 -153T255 -101T234 0V126Q234 168 204 188T125 209V347Q175 347 204 367T234 430V558Q234 618 253 654T324 707T475 724V592Q453 591 434 588T402 575T390 540V404Q390 346 364 318T286 281V275Q339
266 364 238T390 155V17Q390 -16 413 -25T475 -36V-168Z" />
<glyph unicode="|" horiz-adv-x="600" d="M232 -240V760H368V-240H232Z" />
<glyph unicode="}" horiz-adv-x="600" d="M125 724Q220 724 272 709T345 657T366 556V430Q366 388 396 368T475 347V209Q426 209 396 189T366 126V-2Q366 -61 347 -98T277 -151T125 -168V-36Q148 -35 167 -32T198 -19T210 16V152Q210 210 236 238T314 275V281Q262
290 236 318T210 401V539Q210 572 187 581T125 592V724Z" />
<glyph unicode="~" horiz-adv-x="600" d="M45 257Q45 303 52 339T77 402T121 442T189 456Q213 456 230 451T269 431T324 389Q356 364 374 352T412 340Q436 340 447 366T458 456H543Q543 407 537 370T515 307T475 270T410 257Q382 257 360 262T316 282T265 323Q235
351 219 362T182 373Q157 373 143 348T128 257H45Z" />
<glyph unicode="&#xa0;" horiz-adv-x="600" />
<glyph unicode="&#xa1;" horiz-adv-x="600" d="M376 277L401 -185H190L215 277H376ZM296 541Q338 541 368 520T399 448Q399 396 369 375T296 354Q255 354 225 375T195 448Q195 498 225 519T296 541Z" />
<glyph unicode="&#xa2;" horiz-adv-x="600" d="M293 81Q215 89 161 124T80 218T50 361Q52 443 81 503T164 599T293 644V724H387V649Q429 646 474 636T550 608L501 473Q473 489 436 497T366 506Q325 506 293 492T242 446T224 362Q224 311 241 281T290 236T365 222Q406
222 453 235T534 271V126Q509 109 469 97T387 80V-10H293V81Z" />
<glyph unicode="&#xa3;" horiz-adv-x="600" d="M70 147Q98 162 116 176T143 210T152 263V306H80V435H152V510Q152 619 215 672T381 725Q429 725 471 715T550 685L502 547Q473 561 452 567T405 574Q367 574 348 560T328 507V435H476V306H328V264Q328 236 317 215T287
179T245 153H549V0H70V147Z" />
<glyph unicode="&#xa4;" horiz-adv-x="600" d="M397 195Q375 183 350 177T298 171Q271 171 246 176T199 193L135 131L50 216L115 281Q102 304 97 328T91 379Q91 405 97 429T115 478L49 542L135 629L200 564Q223 576 248 582T298 588Q325 588 349 582T397 562L463
629L551 545L484 479Q496 457 502 432T508 379Q508 351 502 327T484 280L548 215L463 130L397 195ZM298 294Q325 294 345 305T376 336T387 379Q387 403 376 423T344 454T298 466Q273 466 254 455T224 423T213 379Q213 355 223 336T252 306T298 294Z" />
<glyph unicode="&#xa5;" horiz-adv-x="600" d="M215 0V99H76V201H215V264H76V367H188L15 714H200L301 469L399 714H585L410 367H523V264H386V201H523V99H386V0H215Z" />
<glyph unicode="&#xa6;" horiz-adv-x="600" d="M232 356V759H368V356H232ZM232 -224V179H368V-224H232Z" />
<glyph unicode="&#xa7;" horiz-adv-x="600" d="M276 -10Q224 -10 178 0T94 33V153Q122 139 155 127T219 107T273 100Q310 100 327 111T344 144Q344 157 338 165T313 184T258 209Q203 233 165 257T108 311T89 386Q89 423 113 452T173 502Q137 526 119 555T101 622Q101
687 156 726T309 765Q361 765 409 754T499 723L450 613Q416 632 379 644T312 656Q286 656 272 647T258 620Q258 608 266 597T294 576T346 552Q405 529 441 505T495 452T512 386Q512 343 491 314T436 262Q466 242 482 214T499 149Q499 79 441 35T276 -10ZM342 311Q350
320 357 333T364 363Q364 383 355 398T324 426T267 454Q254 447 246 435T237 403Q237 388 246 375T273 350T320 322L342 311Z" />
<glyph unicode="&#xa8;" horiz-adv-x="600" d="M423 608Q385 608 362 629T338 690Q338 732 362 753T423 774Q460 774 484 753T508 690Q508 650 484 629T423 608ZM177 608Q140 608 117 629T93 690Q93 732 116 753T177 774Q214 774 238 753T263 690Q263 650 239
629T177 608Z" />
<glyph unicode="&#xa9;" horiz-adv-x="600" d="M301 80Q218 80 155 116T56 217T20 361Q20 448 59 510T162 606T301 640Q379 640 442 605T542 508T580 361Q580 274 542 211T440 114T301 80ZM301 189Q226 189 185 234T143 362Q143 441 184 485T298 530Q328 530 356
524T412 503L381 431Q362 440 343 444T304 449Q273 449 253 427T233 361Q233 314 252 292T307 270Q330 270 352 276T397 294V212Q374 200 351 195T301 189ZM301 151Q359 151 404 177T475 250T501 361Q501 427 474 473T401 544T301 569Q242 569 197 543T125 471T99
361Q99 293 126 246T200 175T301 151Z" />
<glyph unicode="&#xaa;" horiz-adv-x="600" d="M252 360Q201 360 169 388T136 472Q136 515 156 539T213 574T305 587L350 589V594Q350 615 336 625T294 636Q270 636 246 629T191 607L156 683Q189 699 227 710T312 722Q388 722 425 687T463 584V366H389L370 425Q348
394 321 377T252 360ZM287 443Q316 443 333 463T350 512V525L306 522Q271 520 261 507T250 478Q250 461 259 452T287 443Z" />
<glyph unicode="&#xab;" horiz-adv-x="600" d="M447 41L275 274V287L447 521L570 454L453 281L570 108L447 41ZM203 41L30 274V287L203 521L325 454L208 281L325 108L203 41Z" />
<glyph unicode="&#xac;" horiz-adv-x="600" d="M392 116V287H65V418H525V116H392Z" />
<glyph unicode="&#xad;" horiz-adv-x="600" d="M150 195V345H450V195H150Z" />
<glyph unicode="&#xae;" horiz-adv-x="600" d="M296 74Q215 74 153 111T55 213T19 359Q19 447 58 509T161 606T300 640Q377 640 440 605T542 507T580 357Q580 270 541 207T438 109T296 74ZM299 148Q358 148 403 174T474 247T500 359Q500 424 473 470T399 542T298
567Q240 567 195 541T124 468T98 357Q98 291 125 244T198 173T299 148ZM187 209V513H288Q350 513 380 490T410 417Q410 388 399 366T359 330L428 209H344L291 315H265V209H187ZM281 376Q304 376 317 385T331 414Q331 434 320 441T281 449H265V376H281Z" />
<glyph unicode="&#xaf;" horiz-adv-x="600" d="M137 624V739H463V624H137Z" />
<glyph unicode="&#xb0;" horiz-adv-x="600" d="M300 389Q252 389 214 410T153 470T131 557Q131 606 154 643T215 702T300 724Q347 724 385 703T447 644T470 557Q470 508 447 470T386 411T300 389ZM300 494Q330 494 347 513T364 557Q364 587 345 603T300 620Q274
620 256 604T237 557Q237 529 255 512T300 494Z" />
<glyph unicode="&#xb1;" horiz-adv-x="600" d="M234 163V339H70V470H234V649H367V470H530V339H367V163H234ZM70 0V131H530V0H70Z" />
<glyph unicode="&#xb2;" horiz-adv-x="600" d="M153 416V517L252 621Q278 649 292 665T312 694T318 719Q318 735 309 743T280 752Q261 752 244 743T206 711L145 789Q170 818 211 837T307 857Q376 857 410 823T444 735Q444 699 430 669T386 607T315 536L299 521H465V416H153Z"
/>
<glyph unicode="&#xb3;" horiz-adv-x="600" d="M290 408Q248 408 213 416T150 442V554Q177 532 211 522T278 511Q308 511 322 520T337 551Q337 566 325 576T276 586H229V678H265Q301 678 315 688T329 717Q329 733 320 744T287 755Q264 755 243 746T198 717L145
796Q176 822 215 837T301 853Q366 853 404 825T442 748Q442 711 426 684T375 641V637Q415 625 435 600T455 532Q455 473 410 441T290 408Z" />
<glyph unicode="&#xb4;" horiz-adv-x="600" d="M200 620Q217 643 235 668T272 718T303 766H499V756Q480 738 449 711T383 655T323 606H200V620Z" />
<glyph unicode="&#xb5;" horiz-adv-x="600" d="M40 -240V227H215V-240H40ZM226 -11Q129 -11 85 42T40 193V553H215V247Q215 189 233 160T294 130Q331 130 349 149T374 202T380 276V553H555V0H425L402 69H392Q375 43 352 25T297 -2T226 -11Z" />
<glyph unicode="&#xb6;" horiz-adv-x="600" d="M316 273Q303 269 291 267T262 264Q187 264 136 289T57 368T30 509Q30 599 58 654T141 734T275 760H560V-127H472V665H404V-127H316V273Z" />
<glyph unicode="&#xb7;" horiz-adv-x="600" d="M301 253Q260 253 230 274T200 344Q200 394 230 415T301 436Q341 436 370 415T399 344Q399 295 370 274T301 253Z" />
<glyph unicode="&#xb8;" horiz-adv-x="600" d="M276 -240Q254 -240 229 -237T185 -227V-135Q202 -139 216 -142T244 -145Q264 -145 274 -138T284 -117Q284 -100 267 -90T215 -76L247 5H333L321 -32Q363 -40 388 -62T414 -128Q414 -178 379 -209T276 -240Z" />
<glyph unicode="&#xb9;" horiz-adv-x="600" d="M265 595Q265 617 266 650T269 709Q260 702 251 697T236 687L190 658L135 752L292 844H383V416H265V595ZM164 416V506L306 518H351L475 506V416H164Z" />
<glyph unicode="&#xba;" horiz-adv-x="600" d="M298 360Q225 360 178 408T130 541Q130 628 175 675T300 722Q348 722 386 701T447 639T470 541Q470 455 424 408T298 360ZM299 452Q328 452 341 474T354 541Q354 571 348 591T330 621T299 631Q270 631 257 609T243
541Q243 497 256 475T299 452Z" />
<glyph unicode="&#xbb;" horiz-adv-x="600" d="M153 520L325 287V274L153 40L30 107L147 280L30 453L153 520ZM397 520L570 287V274L397 40L275 107L392 280L275 453L397 520Z" />
<glyph unicode="&#xbc;" horiz-adv-x="600" d="M21 120L458 555H590L153 120H21ZM32 387V456L140 465H175L269 456V387H32ZM437 0V52H299V121L428 328H529V125H580V52H529V0H437ZM373 125H437V188Q437 202 437 213T439 238Q434 223 427 210T414 189L373 125ZM109
524Q109 541 110 566T112 611Q105 607 99 602T87 594L51 573L10 644L130 714H199V387H109V524Z" />
<glyph unicode="&#xbd;" horiz-adv-x="600" d="M21 120L458 555H590L153 120H21ZM32 387V456L140 465H175L269 456V387H32ZM352 0V77L427 157Q447 178 458 190T473 212T478 231Q478 243 471 250T449 257Q434 257 421 250T392 226L345 285Q365 307 396 322T470
337Q523 337 549 311T575 244Q575 217 564 194T530 146T476 92L463 80H591V0H352ZM109 524Q109 541 110 566T112 611Q105 607 99 602T87 594L51 573L10 644L130 714H199V387H109V524Z" />
<glyph unicode="&#xbe;" horiz-adv-x="600" d="M21 120L458 555H590L153 120H21ZM437 0V52H299V121L428 328H529V125H580V52H529V0H437ZM373 125H437V188Q437 202 437 213T439 238Q434 223 427 210T414 189L373 125ZM150 383Q119 383 92 389T43 409V495Q64 478
90 470T141 462Q164 462 175 469T186 492Q186 504 177 511T140 519H104V590H131Q159 590 169 598T180 619Q180 631 173 639T148 648Q130 648 114 642T80 619L39 680Q63 700 93 711T159 723Q209 723 238 702T267 643Q267 615 255 594T215 561V558Q277 540 277 478Q277
432 242 408T150 383Z" />
<glyph unicode="&#xbf;" horiz-adv-x="600" d="M377 235Q377 205 370 181T343 134T288 90Q259 72 246 57T230 27T226 -1Q226 -23 241 -36T281 -49Q315 -49 352 -35T438 7L506 -126Q451 -157 394 -176T267 -195Q197 -195 148 -173T72 -111T46 -17Q46 21 56 54T89
115T150 167Q176 184 190 197T209 223T215 252V277H377V235ZM295 541Q338 541 368 520T399 448Q399 396 369 375T295 354Q255 354 225 375T195 448Q195 498 225 519T295 541Z" />
<glyph unicode="&#xc0;" horiz-adv-x="600" d="M5 0L185 717H414L595 0H421L335 423Q330 449 324 481T312 544T302 597Q299 575 293 544T281 481T268 423L175 0H5ZM181 147L202 288H394L411 147H181ZM296 767Q280 779 256 799T206 841T157 883T120 917V927H316Q329
906 348 878T387 824T419 781V767H296Z" />
<glyph unicode="&#xc1;" horiz-adv-x="600" d="M5 0L185 717H414L595 0H421L335 423Q330 449 324 481T312 544T302 597Q299 575 293 544T281 481T268 423L175 0H5ZM181 147L202 288H394L411 147H181ZM210 781Q227 804 245 829T282 879T313 927H509V917Q490 899
459 872T393 816T333 767H210V781Z" />
<glyph unicode="&#xc2;" horiz-adv-x="600" d="M5 0L185 717H414L595 0H421L335 423Q330 449 324 481T312 544T302 597Q299 575 293 544T281 481T268 423L175 0H5ZM181 147L202 288H394L411 147H181ZM105 781Q121 799 142 825T184 879T216 927H385Q399 905 417
880T456 829T495 781V767H384Q363 781 343 799T300 840Q276 816 257 799T218 767H105V781Z" />
<glyph unicode="&#xc3;" horiz-adv-x="600" d="M5 0L185 717H414L595 0H421L335 423Q330 449 324 481T312 544T302 597Q299 575 293 544T281 481T268 423L175 0H5ZM181 147L202 288H394L411 147H181ZM99 765Q101 801 108 831T128 884T161 919T209 932Q232 932
253 925T295 909T333 892T369 885Q391 885 397 898T408 933H500Q497 848 466 807T389 766Q367 766 345 773T302 789T261 806T224 813Q211 813 203 804T191 765H99Z" />
<glyph unicode="&#xc4;" horiz-adv-x="600" d="M5 0L185 717H414L595 0H421L335 423Q330 449 324 481T312 544T302 597Q299 575 293 544T281 481T268 423L175 0H5ZM181 147L202 288H394L411 147H181ZM422 769Q384 769 361 790T337 851Q337 893 361 914T422 935Q459
935 483 914T507 851Q507 811 483 790T422 769ZM176 769Q139 769 116 790T92 851Q92 893 115 914T176 935Q213 935 237 914T262 851Q262 811 238 790T176 769Z" />
<glyph unicode="&#xc5;" horiz-adv-x="600" d="M5 0L185 717H414L595 0H421L335 423Q330 449 324 481T312 544T302 597Q299 575 293 544T281 481T268 423L175 0H5ZM181 147L202 288H394L411 147H181ZM299 765Q242 765 207 799T172 889Q172 944 207 978T299 1012Q354
1012 390 978T427 889Q427 834 391 800T299 765ZM299 848Q316 848 328 859T340 889Q340 907 328 918T299 930Q282 930 270 919T258 889Q258 871 268 860T299 848Z" />
<glyph unicode="&#xc6;" horiz-adv-x="600" d="M5 0L170 714H590V564H478V444H573V294H478V150H590V0H311V564H289L177 0H5ZM191 151L223 300H333L342 151H191Z" />
<glyph unicode="&#xc7;" horiz-adv-x="600" d="M333 -10Q236 -10 171 34T73 158T40 348Q40 437 63 507T130 625T236 699T378 724Q425 724 470 715T565 685L518 537Q483 554 447 561T381 569Q335 569 303 554T253 509T226 439T217 347Q217 274 232 230T280 165T363
144Q403 144 451 156T538 192V31Q491 10 438 0T333 -10ZM329 -240Q307 -240 282 -237T238 -227V-135Q255 -139 269 -142T297 -145Q317 -145 327 -138T337 -117Q337 -100 320 -90T268 -76L300 5H386L374 -32Q416 -40 441 -62T467 -128Q467 -178 432 -209T329 -240Z"
/>
<glyph unicode="&#xc8;" horiz-adv-x="600" d="M60 0V714H540V564H231V442H527V292H231V150H540V0H60ZM298 767Q282 779 258 799T208 841T159 883T122 917V927H318Q331 906 350 878T389 824T421 781V767H298Z" />
<glyph unicode="&#xc9;" horiz-adv-x="600" d="M60 0V714H540V564H231V442H527V292H231V150H540V0H60ZM212 781Q229 804 247 829T284 879T315 927H511V917Q492 899 461 872T395 816T335 767H212V781Z" />
<glyph unicode="&#xca;" horiz-adv-x="600" d="M60 0V714H540V564H231V442H527V292H231V150H540V0H60ZM107 781Q123 799 144 825T186 879T218 927H387Q401 905 419 880T458 829T497 781V767H386Q365 781 345 799T302 840Q278 816 259 799T220 767H107V781Z" />
<glyph unicode="&#xcb;" horiz-adv-x="600" d="M60 0V714H540V564H231V442H527V292H231V150H540V0H60ZM424 769Q386 769 363 790T339 851Q339 893 363 914T424 935Q461 935 485 914T509 851Q509 811 485 790T424 769ZM178 769Q141 769 118 790T94 851Q94 893 117
914T178 935Q215 935 239 914T264 851Q264 811 240 790T178 769Z" />
<glyph unicode="&#xcc;" horiz-adv-x="600" d="M70 0V125L215 141V573L70 589V714H530V589L384 573V141L530 125V0H70ZM296 767Q280 779 256 799T206 841T157 883T120 917V927H316Q329 906 348 878T387 824T419 781V767H296Z" />
<glyph unicode="&#xcd;" horiz-adv-x="600" d="M70 0V125L215 141V573L70 589V714H530V589L384 573V141L530 125V0H70ZM210 781Q227 804 245 829T282 879T313 927H509V917Q490 899 459 872T393 816T333 767H210V781Z" />
<glyph unicode="&#xce;" horiz-adv-x="600" d="M70 0V125L215 141V573L70 589V714H530V589L384 573V141L530 125V0H70ZM105 781Q121 799 142 825T184 879T216 927H385Q399 905 417 880T456 829T495 781V767H384Q363 781 343 799T300 840Q276 816 257 799T218 767H105V781Z"
/>
<glyph unicode="&#xcf;" horiz-adv-x="600" d="M70 0V125L215 141V573L70 589V714H530V589L384 573V141L530 125V0H70ZM422 769Q384 769 361 790T337 851Q337 893 361 914T422 935Q459 935 483 914T507 851Q507 811 483 790T422 769ZM176 769Q139 769 116 790T92
851Q92 893 115 914T176 935Q213 935 237 914T262 851Q262 811 238 790T176 769Z" />
<glyph unicode="&#xd0;" horiz-adv-x="600" d="M0 281V425H296V281H0ZM40 0V714H256Q359 714 431 675T541 559T580 372Q580 251 539 168T422 43T242 0H40ZM244 145Q325 145 364 201T403 365Q403 434 387 479T337 547T255 569H206V145H244Z" />
<glyph unicode="&#xd1;" horiz-adv-x="600" d="M40 0V714H277L412 157H416Q413 191 411 221T407 277T404 328T403 376V714H560V0H329L190 552H186Q190 501 192 467T195 410T196 368T197 328V0H40ZM104 765Q106 801 113 831T133 884T166 919T214 932Q237 932 258
925T300 909T338 892T374 885Q396 885 402 898T413 933H505Q502 848 471 807T394 766Q372 766 350 773T307 789T266 806T229 813Q216 813 208 804T196 765H104Z" />
<glyph unicode="&#xd2;" horiz-adv-x="600" d="M300 -10Q228 -10 175 14T88 85T37 200T20 358Q20 478 50 559T143 683T300 725Q372 725 425 701T512 629T563 514T580 357Q580 270 564 202T513 86T426 15T300 -10ZM300 140Q338 140 360 163T391 235T401 360Q401
470 380 522T300 574Q263 574 241 553T209 484T199 358Q199 281 208 233T240 162T300 140ZM296 767Q280 779 256 799T206 841T157 883T120 917V927H316Q329 906 348 878T387 824T419 781V767H296Z" />
<glyph unicode="&#xd3;" horiz-adv-x="600" d="M300 -10Q228 -10 175 14T88 85T37 200T20 358Q20 478 50 559T143 683T300 725Q372 725 425 701T512 629T563 514T580 357Q580 270 564 202T513 86T426 15T300 -10ZM300 140Q338 140 360 163T391 235T401 360Q401
470 380 522T300 574Q263 574 241 553T209 484T199 358Q199 281 208 233T240 162T300 140ZM210 781Q227 804 245 829T282 879T313 927H509V917Q490 899 459 872T393 816T333 767H210V781Z" />
<glyph unicode="&#xd4;" horiz-adv-x="600" d="M300 -10Q228 -10 175 14T88 85T37 200T20 358Q20 478 50 559T143 683T300 725Q372 725 425 701T512 629T563 514T580 357Q580 270 564 202T513 86T426 15T300 -10ZM300 140Q338 140 360 163T391 235T401 360Q401
470 380 522T300 574Q263 574 241 553T209 484T199 358Q199 281 208 233T240 162T300 140ZM105 781Q121 799 142 825T184 879T216 927H385Q399 905 417 880T456 829T495 781V767H384Q363 781 343 799T300 840Q276 816 257 799T218 767H105V781Z" />
<glyph unicode="&#xd5;" horiz-adv-x="600" d="M300 -10Q228 -10 175 14T88 85T37 200T20 358Q20 478 50 559T143 683T300 725Q372 725 425 701T512 629T563 514T580 357Q580 270 564 202T513 86T426 15T300 -10ZM300 140Q338 140 360 163T391 235T401 360Q401
470 380 522T300 574Q263 574 241 553T209 484T199 358Q199 281 208 233T240 162T300 140ZM99 765Q101 801 108 831T128 884T161 919T209 932Q232 932 253 925T295 909T333 892T369 885Q391 885 397 898T408 933H500Q497 848 466 807T389 766Q367 766 345 773T302
789T261 806T224 813Q211 813 203 804T191 765H99Z" />
<glyph unicode="&#xd6;" horiz-adv-x="600" d="M300 -10Q228 -10 175 14T88 85T37 200T20 358Q20 478 50 559T143 683T300 725Q372 725 425 701T512 629T563 514T580 357Q580 270 564 202T513 86T426 15T300 -10ZM300 140Q338 140 360 163T391 235T401 360Q401
470 380 522T300 574Q263 574 241 553T209 484T199 358Q199 281 208 233T240 162T300 140ZM422 769Q384 769 361 790T337 851Q337 893 361 914T422 935Q459 935 483 914T507 851Q507 811 483 790T422 769ZM176 769Q139 769 116 790T92 851Q92 893 115 914T176 935Q213
935 237 914T262 851Q262 811 238 790T176 769Z" />
<glyph unicode="&#xd7;" horiz-adv-x="600" d="M166 130L76 224L203 353L75 482L166 577L297 448L429 577L524 485L391 353L521 222L429 130L297 260L166 130Z" />
<glyph unicode="&#xd8;" horiz-adv-x="600" d="M96 -47L1 17L500 759L594 697L96 -47ZM300 -10Q228 -10 175 14T88 85T37 200T20 358Q20 478 50 559T143 683T300 725Q372 725 425 701T512 629T563 514T580 357Q580 270 564 202T513 86T426 15T300 -10ZM300 140Q338
140 360 163T391 235T401 360Q401 470 380 522T300 574Q263 574 241 553T209 484T199 358Q199 281 208 233T240 162T300 140Z" />
<glyph unicode="&#xd9;" horiz-adv-x="600" d="M300 -10Q220 -10 162 21T72 112T40 259V714H215V273Q215 225 224 197T251 157T297 145Q325 145 344 157T374 197T385 274V714H560V263Q560 178 530 117T442 23T300 -10ZM296 767Q280 779 256 799T206 841T157 883T120
917V927H316Q329 906 348 878T387 824T419 781V767H296Z" />
<glyph unicode="&#xda;" horiz-adv-x="600" d="M300 -10Q220 -10 162 21T72 112T40 259V714H215V273Q215 225 224 197T251 157T297 145Q325 145 344 157T374 197T385 274V714H560V263Q560 178 530 117T442 23T300 -10ZM210 781Q227 804 245 829T282 879T313 927H509V917Q490
899 459 872T393 816T333 767H210V781Z" />
<glyph unicode="&#xdb;" horiz-adv-x="600" d="M300 -10Q220 -10 162 21T72 112T40 259V714H215V273Q215 225 224 197T251 157T297 145Q325 145 344 157T374 197T385 274V714H560V263Q560 178 530 117T442 23T300 -10ZM105 781Q121 799 142 825T184 879T216 927H385Q399
905 417 880T456 829T495 781V767H384Q363 781 343 799T300 840Q276 816 257 799T218 767H105V781Z" />
<glyph unicode="&#xdc;" horiz-adv-x="600" d="M300 -10Q220 -10 162 21T72 112T40 259V714H215V273Q215 225 224 197T251 157T297 145Q325 145 344 157T374 197T385 274V714H560V263Q560 178 530 117T442 23T300 -10ZM422 769Q384 769 361 790T337 851Q337 893
361 914T422 935Q459 935 483 914T507 851Q507 811 483 790T422 769ZM176 769Q139 769 116 790T92 851Q92 893 115 914T176 935Q213 935 237 914T262 851Q262 811 238 790T176 769Z" />
<glyph unicode="&#xdd;" horiz-adv-x="600" d="M213 0V276L15 714H199L302 460L403 714H585L388 276V0H213ZM210 781Q227 804 245 829T282 879T313 927H509V917Q490 899 459 872T393 816T333 767H210V781Z" />
<glyph unicode="&#xde;" horiz-adv-x="600" d="M60 0V714H225V594H324Q447 594 508 535T570 366Q570 299 545 242T465 151T319 117H225V0H60ZM299 262Q329 262 350 273T383 308T395 364Q395 402 374 425T302 449H225V262H299Z" />
<glyph unicode="&#xdf;" horiz-adv-x="600" d="M396 -10Q364 -10 324 -4T252 19V165Q277 149 311 138T373 126Q396 126 411 135T426 167Q426 178 420 185T398 205T348 238Q320 257 299 276T265 318T253 371Q253 403 265 425T294 464T329 495T359 525T371 563Q371
591 350 606T291 621Q259 621 240 609T214 574T206 517V0H45V537Q45 609 76 660T164 738T299 765Q368 765 421 744T506 683T537 584Q537 547 526 521T497 477T463 444T435 419T423 395Q423 384 433 374T460 353T499 326Q530 305 551 283T584 233T595 163Q595 107
574 69T508 10T396 -10Z" />
<glyph unicode="&#xe0;" horiz-adv-x="600" d="M227 -10Q132 -10 86 39T40 165Q40 229 68 267T147 325T264 346L379 350V369Q379 398 358 412T289 427Q257 427 216 420T134 393L81 513Q134 539 190 551T307 563Q430 563 487 517T545 377V0H415L396 66H392Q364
31 333 15T274 -5T227 -10ZM271 125Q299 125 323 135T363 165T379 217V244L321 243Q281 243 255 237T215 217T202 179Q202 152 219 139T271 125ZM561 606Q545 618 521 638T471 680T422 722T385 756V766H581Q594 745 613 717T652 663T684 620V606H561Z" />
<glyph unicode="&#xe1;" horiz-adv-x="600" d="M227 -10Q132 -10 86 39T40 165Q40 229 68 267T147 325T264 346L379 350V369Q379 398 358 412T289 427Q257 427 216 420T134 393L81 513Q134 539 190 551T307 563Q430 563 487 517T545 377V0H415L396 66H392Q364
31 333 15T274 -5T227 -10ZM271 125Q299 125 323 135T363 165T379 217V244L321 243Q281 243 255 237T215 217T202 179Q202 152 219 139T271 125ZM219 620Q236 643 254 668T291 718T322 766H518V756Q499 738 468 711T402 655T342 606H219V620Z" />
<glyph unicode="&#xe2;" horiz-adv-x="600" d="M227 -10Q132 -10 86 39T40 165Q40 229 68 267T147 325T264 346L379 350V369Q379 398 358 412T289 427Q257 427 216 420T134 393L81 513Q134 539 190 551T307 563Q430 563 487 517T545 377V0H415L396 66H392Q364
31 333 15T274 -5T227 -10ZM271 125Q299 125 323 135T363 165T379 217V244L321 243Q281 243 255 237T215 217T202 179Q202 152 219 139T271 125ZM114 620Q130 638 151 664T193 718T225 766H394Q408 744 426 719T465 668T504 620V606H393Q372 620 352 638T309 679Q285
655 266 638T227 606H114V620Z" />
<glyph unicode="&#xe3;" horiz-adv-x="600" d="M227 -10Q132 -10 86 39T40 165Q40 229 68 267T147 325T264 346L379 350V369Q379 398 358 412T289 427Q257 427 216 420T134 393L81 513Q134 539 190 551T307 563Q430 563 487 517T545 377V0H415L396 66H392Q364
31 333 15T274 -5T227 -10ZM271 125Q299 125 323 135T363 165T379 217V244L321 243Q281 243 255 237T215 217T202 179Q202 152 219 139T271 125ZM108 604Q110 640 117 670T137 723T170 758T218 771Q241 771 262 764T304 748T342 731T378 724Q400 724 406 737T417
772H509Q506 687 475 646T398 605Q376 605 354 612T311 628T270 645T233 652Q220 652 212 643T200 604H108Z" />
<glyph unicode="&#xe4;" horiz-adv-x="600" d="M227 -10Q132 -10 86 39T40 165Q40 229 68 267T147 325T264 346L379 350V369Q379 398 358 412T289 427Q257 427 216 420T134 393L81 513Q134 539 190 551T307 563Q430 563 487 517T545 377V0H415L396 66H392Q364
31 333 15T274 -5T227 -10ZM271 125Q299 125 323 135T363 165T379 217V244L321 243Q281 243 255 237T215 217T202 179Q202 152 219 139T271 125ZM431 608Q393 608 370 629T346 690Q346 732 370 753T431 774Q468 774 492 753T516 690Q516 650 492 629T431 608ZM185
608Q148 608 125 629T101 690Q101 732 124 753T185 774Q222 774 246 753T271 690Q271 650 247 629T185 608Z" />
<glyph unicode="&#xe5;" horiz-adv-x="600" d="M227 -10Q132 -10 86 39T40 165Q40 229 68 267T147 325T264 346L379 350V369Q379 398 358 412T289 427Q257 427 216 420T134 393L81 513Q134 539 190 551T307 563Q430 563 487 517T545 377V0H415L396 66H392Q364
31 333 15T274 -5T227 -10ZM271 125Q299 125 323 135T363 165T379 217V244L321 243Q281 243 255 237T215 217T202 179Q202 152 219 139T271 125ZM308 604Q251 604 216 638T181 728Q181 783 216 817T308 851Q363 851 399 817T436 728Q436 673 400 639T308 604ZM308
687Q325 687 337 698T349 728Q349 746 337 757T308 769Q291 769 279 758T267 728Q267 710 277 699T308 687Z" />
<glyph unicode="&#xe6;" horiz-adv-x="600" d="M161 -10Q88 -10 47 34T5 156Q5 219 28 257T90 315T177 336L237 339V363Q237 399 221 412T173 425Q150 425 130 420T91 407L37 525Q75 545 111 553T188 562Q229 562 259 554T315 527Q344 546 368 554T423 562Q492
562 529 527T581 434T595 306V232H381Q382 197 393 173T426 137T481 124Q505 124 526 131T567 156V29Q548 10 514 0T441 -10Q388 -10 356 10T296 65Q270 29 241 10T161 -10ZM196 118Q215 118 223 129T235 160T238 203V246H216Q189 246 173 224T157 169Q157 145
167 132T196 118ZM461 335Q461 365 457 384T444 414T420 424Q395 424 388 400T379 335H461Z" />
<glyph unicode="&#xe7;" horiz-adv-x="600" d="M327 -10Q237 -10 178 22T90 116T60 270Q60 360 89 425T178 527T335 563Q385 563 435 553T530 520L478 392Q432 410 403 416T348 422Q309 422 283 406T244 359T230 280Q230 226 246 193T290 145T353 130Q382 130
424 140T509 181V32Q466 10 420 0T327 -10ZM319 -240Q297 -240 272 -237T228 -227V-135Q245 -139 259 -142T287 -145Q307 -145 317 -138T327 -117Q327 -100 310 -90T258 -76L290 5H376L364 -32Q406 -40 431 -62T457 -128Q457 -178 422 -209T319 -240Z" />
<glyph unicode="&#xe8;" horiz-adv-x="600" d="M336 -10Q238 -10 172 24T73 122T40 277Q40 364 70 428T159 528T306 563Q387 563 443 531T529 439T559 298V222H204Q207 189 227 168T283 135T362 124Q407 124 453 135T538 170V30Q488 7 434 -1T336 -10ZM400 339Q400
369 388 391T355 425T305 437Q259 437 235 409T207 339H400ZM557 606Q541 618 517 638T467 680T418 722T381 756V766H577Q590 745 609 717T648 663T680 620V606H557Z" />
<glyph unicode="&#xe9;" horiz-adv-x="600" d="M336 -10Q238 -10 172 24T73 122T40 277Q40 364 70 428T159 528T306 563Q387 563 443 531T529 439T559 298V222H204Q207 189 227 168T283 135T362 124Q407 124 453 135T538 170V30Q488 7 434 -1T336 -10ZM400 339Q400
369 388 391T355 425T305 437Q259 437 235 409T207 339H400ZM215 620Q232 643 250 668T287 718T318 766H514V756Q495 738 464 711T398 655T338 606H215V620Z" />
<glyph unicode="&#xea;" horiz-adv-x="600" d="M336 -10Q238 -10 172 24T73 122T40 277Q40 364 70 428T159 528T306 563Q387 563 443 531T529 439T559 298V222H204Q207 189 227 168T283 135T362 124Q407 124 453 135T538 170V30Q488 7 434 -1T336 -10ZM400 339Q400
369 388 391T355 425T305 437Q259 437 235 409T207 339H400ZM110 620Q126 638 147 664T189 718T221 766H390Q404 744 422 719T461 668T500 620V606H389Q368 620 348 638T305 679Q281 655 262 638T223 606H110V620Z" />
<glyph unicode="&#xeb;" horiz-adv-x="600" d="M336 -10Q238 -10 172 24T73 122T40 277Q40 364 70 428T159 528T306 563Q387 563 443 531T529 439T559 298V222H204Q207 189 227 168T283 135T362 124Q407 124 453 135T538 170V30Q488 7 434 -1T336 -10ZM400 339Q400
369 388 391T355 425T305 437Q259 437 235 409T207 339H400ZM427 608Q389 608 366 629T342 690Q342 732 366 753T427 774Q464 774 488 753T512 690Q512 650 488 629T427 608ZM181 608Q144 608 121 629T97 690Q97 732 120 753T181 774Q218 774 242 753T267 690Q267
650 243 629T181 608Z" />
<glyph unicode="&#xec;" horiz-adv-x="600" d="M40 0V124L226 140V413L83 427V553H401V140L560 124V0H40ZM552 606Q536 618 512 638T462 680T413 722T376 756V766H572Q585 745 604 717T643 663T675 620V606H552Z" />
<glyph unicode="&#xed;" horiz-adv-x="600" d="M40 0V124L226 140V413L83 427V553H401V140L560 124V0H40ZM210 620Q227 643 245 668T282 718T313 766H509V756Q490 738 459 711T393 655T333 606H210V620Z" />
<glyph unicode="&#xee;" horiz-adv-x="600" d="M40 0V124L226 140V413L83 427V553H401V140L560 124V0H40ZM105 620Q121 638 142 664T184 718T216 766H385Q399 744 417 719T456 668T495 620V606H384Q363 620 343 638T300 679Q276 655 257 638T218 606H105V620Z" />
<glyph unicode="&#xef;" horiz-adv-x="600" d="M40 0V124L226 140V413L83 427V553H401V140L560 124V0H40ZM678 608Q640 608 617 629T593 690Q593 732 617 753T678 774Q715 774 739 753T763 690Q763 650 739 629T678 608ZM432 608Q395 608 372 629T348 690Q348
732 371 753T432 774Q469 774 493 753T518 690Q518 650 494 629T432 608Z" />
<glyph unicode="&#xf0;" horiz-adv-x="600" d="M298 -10Q221 -10 161 19T65 105T30 246Q30 325 61 379T145 463T268 492Q312 492 339 481T379 448L383 450Q368 481 345 513T291 576T227 633T155 679L206 767Q295 732 363 682T477 568T546 434T570 284Q570 145
498 68T298 -10ZM302 116Q336 116 355 131T383 175T392 239Q392 278 383 306T354 349T298 365Q266 365 247 351T218 311T209 245Q209 206 218 177T248 132T302 116ZM206 502L152 586L440 767L493 683L206 502Z" />
<glyph unicode="&#xf1;" horiz-adv-x="600" d="M45 0V553H175L198 483H208Q225 509 248 526T303 553T374 563Q470 563 515 510T560 359V0H385V301Q385 366 367 394T311 422Q259 422 240 375T220 241V0H45ZM113 604Q115 640 122 670T142 723T175 758T223 771Q246
771 267 764T309 748T347 731T383 724Q405 724 411 737T422 772H514Q511 687 480 646T403 605Q381 605 359 612T316 628T275 645T238 652Q225 652 217 643T205 604H113Z" />
<glyph unicode="&#xf2;" horiz-adv-x="600" d="M305 -10Q237 -10 186 11T100 70T48 162T30 281Q30 363 59 426T146 526T294 563Q381 563 443 527T537 425T570 269Q570 207 554 156T504 67T422 10T305 -10ZM300 130Q336 130 358 148T390 199T401 275Q401 319 391
352T358 403T300 422Q246 422 223 380T200 275Q200 231 210 199T243 148T300 130ZM552 606Q536 618 512 638T462 680T413 722T376 756V766H572Q585 745 604 717T643 663T675 620V606H552Z" />
<glyph unicode="&#xf3;" horiz-adv-x="600" d="M305 -10Q237 -10 186 11T100 70T48 162T30 281Q30 363 59 426T146 526T294 563Q381 563 443 527T537 425T570 269Q570 207 554 156T504 67T422 10T305 -10ZM300 130Q336 130 358 148T390 199T401 275Q401 319 391
352T358 403T300 422Q246 422 223 380T200 275Q200 231 210 199T243 148T300 130ZM210 620Q227 643 245 668T282 718T313 766H509V756Q490 738 459 711T393 655T333 606H210V620Z" />
<glyph unicode="&#xf4;" horiz-adv-x="600" d="M305 -10Q237 -10 186 11T100 70T48 162T30 281Q30 363 59 426T146 526T294 563Q381 563 443 527T537 425T570 269Q570 207 554 156T504 67T422 10T305 -10ZM300 130Q336 130 358 148T390 199T401 275Q401 319 391
352T358 403T300 422Q246 422 223 380T200 275Q200 231 210 199T243 148T300 130ZM105 620Q121 638 142 664T184 718T216 766H385Q399 744 417 719T456 668T495 620V606H384Q363 620 343 638T300 679Q276 655 257 638T218 606H105V620Z" />
<glyph unicode="&#xf5;" horiz-adv-x="600" d="M305 -10Q237 -10 186 11T100 70T48 162T30 281Q30 363 59 426T146 526T294 563Q381 563 443 527T537 425T570 269Q570 207 554 156T504 67T422 10T305 -10ZM300 130Q336 130 358 148T390 199T401 275Q401 319 391
352T358 403T300 422Q246 422 223 380T200 275Q200 231 210 199T243 148T300 130ZM99 604Q101 640 108 670T128 723T161 758T209 771Q232 771 253 764T295 748T333 731T369 724Q391 724 397 737T408 772H500Q497 687 466 646T389 605Q367 605 345 612T302 628T261
645T224 652Q211 652 203 643T191 604H99Z" />
<glyph unicode="&#xf6;" horiz-adv-x="600" d="M305 -10Q237 -10 186 11T100 70T48 162T30 281Q30 363 59 426T146 526T294 563Q381 563 443 527T537 425T570 269Q570 207 554 156T504 67T422 10T305 -10ZM300 130Q336 130 358 148T390 199T401 275Q401 319 391
352T358 403T300 422Q246 422 223 380T200 275Q200 231 210 199T243 148T300 130ZM678 608Q640 608 617 629T593 690Q593 732 617 753T678 774Q715 774 739 753T763 690Q763 650 739 629T678 608ZM432 608Q395 608 372 629T348 690Q348 732 371 753T432 774Q469
774 493 753T518 690Q518 650 494 629T432 608Z" />
<glyph unicode="&#xf7;" horiz-adv-x="600" d="M60 287V418H540V287H60ZM301 74Q267 74 245 95T223 159Q223 203 244 223T301 243Q335 243 356 223T378 159Q378 117 356 96T301 74ZM301 462Q267 462 245 483T223 547Q223 591 244 611T301 631Q335 631 356 611T378
547Q378 505 356 484T301 462Z" />
<glyph unicode="&#xf8;" horiz-adv-x="600" d="M147 -42L68 9L450 595L529 543L147 -42ZM305 -10Q237 -10 186 11T100 70T48 162T30 281Q30 363 59 426T146 526T294 563Q381 563 443 527T537 425T570 269Q570 207 554 156T504 67T422 10T305 -10ZM300 130Q336
130 358 148T390 199T401 275Q401 319 391 352T358 403T300 422Q246 422 223 380T200 275Q200 231 210 199T243 148T300 130Z" />
<glyph unicode="&#xf9;" horiz-adv-x="600" d="M226 -11Q129 -11 85 42T40 193V553H215V247Q215 189 233 160T294 130Q331 130 349 149T374 202T380 276V553H555V0H425L402 69H392Q375 43 352 25T297 -2T226 -11ZM552 606Q536 618 512 638T462 680T413 722T376
756V766H572Q585 745 604 717T643 663T675 620V606H552Z" />
<glyph unicode="&#xfa;" horiz-adv-x="600" d="M226 -11Q129 -11 85 42T40 193V553H215V247Q215 189 233 160T294 130Q331 130 349 149T374 202T380 276V553H555V0H425L402 69H392Q375 43 352 25T297 -2T226 -11ZM210 620Q227 643 245 668T282 718T313 766H509V756Q490
738 459 711T393 655T333 606H210V620Z" />
<glyph unicode="&#xfb;" horiz-adv-x="600" d="M226 -11Q129 -11 85 42T40 193V553H215V247Q215 189 233 160T294 130Q331 130 349 149T374 202T380 276V553H555V0H425L402 69H392Q375 43 352 25T297 -2T226 -11ZM105 620Q121 638 142 664T184 718T216 766H385Q399
744 417 719T456 668T495 620V606H384Q363 620 343 638T300 679Q276 655 257 638T218 606H105V620Z" />
<glyph unicode="&#xfc;" horiz-adv-x="600" d="M226 -11Q129 -11 85 42T40 193V553H215V247Q215 189 233 160T294 130Q331 130 349 149T374 202T380 276V553H555V0H425L402 69H392Q375 43 352 25T297 -2T226 -11ZM678 608Q640 608 617 629T593 690Q593 732 617
753T678 774Q715 774 739 753T763 690Q763 650 739 629T678 608ZM432 608Q395 608 372 629T348 690Q348 732 371 753T432 774Q469 774 493 753T518 690Q518 650 494 629T432 608Z" />
<glyph unicode="&#xfd;" horiz-adv-x="600" d="M125 -245Q107 -245 88 -243T48 -237V-104Q62 -107 75 -108T101 -110Q132 -110 155 -101T196 -73T222 -27L234 7L10 553H198L291 262Q297 243 302 222T313 171H316Q319 189 322 207T328 240T334 263L411 553H590L379
-55Q358 -117 325 -159T242 -223T125 -245ZM210 620Q227 643 245 668T282 718T313 766H509V756Q490 738 459 711T393 655T333 606H210V620Z" />
<glyph unicode="&#xfe;" horiz-adv-x="600" d="M45 -240V760H218V622Q218 586 216 556T209 481H217Q236 511 260 529T312 555T371 563Q427 563 465 540T527 476T560 386T570 283Q570 196 546 130T476 27T362 -10Q337 -10 312 -4T262 17T217 56H208Q210 43 213
15T217 -33V-240H45ZM308 130Q353 130 374 168T395 279Q395 350 375 386T307 422Q264 422 241 390T217 292V278Q217 201 242 166T308 130Z" />
<glyph unicode="&#xff;" horiz-adv-x="600" d="M125 -245Q107 -245 88 -243T48 -237V-104Q62 -107 75 -108T101 -110Q132 -110 155 -101T196 -73T222 -27L234 7L10 553H198L291 262Q297 243 302 222T313 171H316Q319 189 322 207T328 240T334 263L411 553H590L379
-55Q358 -117 325 -159T242 -223T125 -245ZM678 608Q640 608 617 629T593 690Q593 732 617 753T678 774Q715 774 739 753T763 690Q763 650 739 629T678 608ZM432 608Q395 608 372 629T348 690Q348 732 371 753T432 774Q469 774 493 753T518 690Q518 650 494 629T432
608Z" />
<glyph unicode="&#x2013;" horiz-adv-x="600" d="M100 195V345H500V195H100Z" />
<glyph unicode="&#x2014;" horiz-adv-x="600" d="M0 195V345H600V195H0Z" />
<glyph unicode="&#x2018;" horiz-adv-x="600" d="M194 455Q203 491 217 537T247 630T280 713H405Q396 670 387 622T369 528T356 444H201L194 455Z" />
<glyph unicode="&#x2019;" horiz-adv-x="600" d="M199 429Q205 459 211 496T224 573T234 649T241 714H394L400 703Q392 658 380 609T354 513T324 429H199Z" />
<glyph unicode="&#x201a;" horiz-adv-x="600" d="M184 -160Q194 -114 203 -57T221 56T233 153H402L409 141Q402 114 393 75T371 -8T347 -92T322 -160H184Z" />
<glyph unicode="&#x201c;" horiz-adv-x="600" d="M330 455Q339 491 353 537T383 630T416 713H541Q532 670 523 622T505 528T492 444H337L330 455ZM314 455Q323 491 337 537T367 630T400 713H525Q516 670 507 622T489 528T476 444H321L314 455Z" />
<glyph unicode="&#x201d;" horiz-adv-x="600" d="M525 702Q516 667 502 621T472 528T439 444H314Q324 487 333 535T350 629T363 713H518L525 702ZM285 702Q276 667 262 621T232 528T199 444H74Q84 487 93 535T110 629T123 713H278L285 702Z" />
<glyph unicode="&#x201e;" horiz-adv-x="600" d="M310 -160Q320 -114 329 -57T347 56T359 153H528L535 141Q528 114 519 75T497 -8T473 -92T448 -160H310ZM350 -160Q360 -114 369 -57T387 56T399 153H568L575 141Q568 114 559 75T537 -8T513 -92T488 -160H350Z" />
<glyph unicode="&#x2022;" horiz-adv-x="600" d="M300 197Q236 197 192 236T148 365Q148 456 192 494T300 533Q342 533 376 516T431 463T452 365Q452 306 432 269T377 214T300 197Z" />
<glyph unicode="&#x2039;" horiz-adv-x="600" d="M330 42L144 271V284L330 515L456 448L321 278L456 108L330 42Z" />
<glyph unicode="&#x203a;" horiz-adv-x="600" d="M269 517L455 288V275L269 44L143 111L278 281L143 451L269 517Z" />
</font>
</defs>
</svg>
