<?xml version="1.0" standalone="no"?>
<!DOCTYPE svg PUBLIC "-//W3C//DTD SVG 1.1//EN" "http://www.w3.org/Graphics/SVG/1.1/DTD/svg11.dtd">
<svg xmlns="http://www.w3.org/2000/svg">
<defs >
<font id="NotoSansMono" horiz-adv-x="645" ><font-face
    font-family="Noto Sans Mono Medium"
    units-per-em="1000"
    panose-1="2 11 5 9 4 5 4 2 2 4"
    ascent="1069"
    descent="-293"
    alphabetic="0" />
<glyph unicode=" " horiz-adv-x="600" />
<glyph unicode="!" horiz-adv-x="600" d="M255 212L237 714H364L346 212H255ZM300 -10Q269 -10 249 8T229 64Q229 104 249 121T300 138Q331 138 350 121T370 64Q370 27 351 9T300 -10Z" />
<glyph unicode="&quot;" horiz-adv-x="600" d="M361 456L341 714H449L429 456H361ZM171 456L151 714H259L239 456H171Z" />
<glyph unicode="#" horiz-adv-x="600" d="M100 0L136 206H19V282H150L179 431H53V506H192L230 714H310L272 506H385L423 714H501L463 506H581V431H449L422 282H549V206H408L369 0H289L328 206H216L179 0H100ZM230 282H342L370 431H258L230 282Z" />
<glyph unicode="$" horiz-adv-x="600" d="M265 34Q214 36 168 44T87 69V166Q122 148 170 135T265 120V324Q203 345 162 369T101 428T80 513Q80 564 103 601T167 661T265 687V759H329V688Q378 687 419 677T499 649L468 566Q436 580 401 589T329 601V401Q390 382
433 360T498 304T520 216Q520 145 471 97T329 38V-58H265V34ZM329 125Q378 132 400 155T422 215Q422 238 414 253T385 279T329 301V125ZM265 600Q236 597 217 586T188 557T178 514Q178 492 186 476T214 447T265 425V600Z" />
<glyph unicode="%" horiz-adv-x="600" d="M76 0L435 714H520L162 0H76ZM456 -9Q394 -9 354 35T314 160Q314 242 352 286T457 330Q521 330 560 286T600 160Q600 80 562 36T456 -9ZM457 57Q487 57 502 82T518 160Q518 215 503 239T457 263Q426 263 411 239T395 160Q395
107 410 82T457 57ZM142 383Q80 383 40 427T0 552Q0 634 38 678T143 722Q207 722 246 678T286 552Q286 472 248 428T142 383ZM143 449Q173 449 188 474T204 552Q204 607 189 631T143 655Q112 655 97 631T81 552Q81 499 96 474T143 449Z" />
<glyph unicode="&amp;" horiz-adv-x="600" d="M222 -10Q161 -10 120 14T57 81T36 177Q36 232 57 274T115 351T197 419Q221 436 247 458T293 510T312 576Q312 610 296 628T251 647Q222 647 206 628T189 572Q189 543 198 515T221 463T250 421L582 0H460L187 360Q167
386 146 418T110 489T95 571Q95 641 136 682T249 724Q322 724 363 683T404 575Q404 529 382 489T325 416T252 351Q222 327 195 303T152 250T135 183Q135 140 161 110T234 79Q270 79 301 96T359 144T404 210T435 285T454 357H550Q541 301 522 248T475 147T408 65T324
10T222 -10Z" />
<glyph unicode="&apos;" horiz-adv-x="600" d="M265 456L246 714H353L334 456H265Z" />
<glyph unicode="(" horiz-adv-x="600" d="M342 -160Q268 -72 233 39T197 273Q197 397 233 510T342 714H436Q367 620 332 507T297 274Q297 157 332 46T435 -160H342Z" />
<glyph unicode=")" horiz-adv-x="600" d="M258 714Q332 626 367 515T403 281Q403 157 367 44T258 -160H164Q233 -66 268 47T303 280Q303 397 268 508T165 714H258Z" />
<glyph unicode="*" horiz-adv-x="600" d="M380 330L300 482L221 331L141 381L244 513L86 534L103 618L268 575L255 749H345L332 575L499 621L517 531L358 512L462 381L380 330Z" />
<glyph unicode="+" horiz-adv-x="600" d="M260 120V312H77V393H260V587H342V393H523V312H342V120H260Z" />
<glyph unicode="," horiz-adv-x="600" d="M206 -145Q217 -101 227 -52T246 45T260 131H376L384 119Q377 92 367 59T344 -9T318 -79T290 -145H206Z" />
<glyph unicode="-" horiz-adv-x="600" d="M150 223V316H450V223H150Z" />
<glyph unicode="." horiz-adv-x="600" d="M300 -10Q269 -10 249 8T229 64Q229 104 249 121T300 138Q331 138 350 121T370 64Q370 27 351 9T300 -10Z" />
<glyph unicode="/" horiz-adv-x="600" d="M114 -1L388 715H486L212 -1H114Z" />
<glyph unicode="0" horiz-adv-x="600" d="M300 -10Q216 -10 162 33T83 159T57 359Q57 476 82 557T160 681T298 724Q383 724 437 681T517 556T543 356Q543 271 530 204T488 89T413 16T300 -10ZM190 102L126 158L400 619L459 551L190 102ZM299 80Q375 80 409 148T444
356Q444 446 429 507T382 601T299 633Q249 633 218 603T173 511T158 356Q158 222 190 151T299 80Z" />
<glyph unicode="1" horiz-adv-x="600" d="M274 436Q274 464 274 493T276 551T278 602Q262 593 249 586T214 569L135 527L88 610L291 714H377V0H274V436ZM127 0V72L274 84H377L523 72V0H127Z" />
<glyph unicode="2" horiz-adv-x="600" d="M66 0V85L251 268Q299 315 334 355T388 436T408 519Q408 577 376 604T293 631Q248 631 208 613T130 562L71 635Q101 662 135 682T209 713T299 724Q365 724 414 700T489 633T516 527Q516 470 494 420T433 324T341 228L206
99V93H548V0H66Z" />
<glyph unicode="3" horiz-adv-x="600" d="M265 -10Q220 -10 169 -1T73 29V127Q117 105 168 94T266 82Q345 82 382 115T420 207Q420 249 400 274T342 311T246 323H178V414H246Q298 414 332 428T383 470T401 534Q401 579 374 605T288 632Q243 632 202 616T126 578L75
652Q116 683 172 703T295 724Q360 724 407 703T480 642T506 549Q506 503 489 467T438 408T360 376V373Q416 366 453 344T509 286T528 201Q528 136 498 89T410 16T265 -10Z" />
<glyph unicode="4" horiz-adv-x="600" d="M351 0V156H47V240L341 717H452V245H553V156H452V0H351ZM148 245H351V406Q351 429 351 457T353 513T355 564T357 600H353Q346 581 333 557T310 515L148 245Z" />
<glyph unicode="5" horiz-adv-x="600" d="M256 -10Q209 -10 162 0T79 29V127Q116 105 161 94T251 83Q327 83 369 115T411 216Q411 264 391 295T336 341T255 357Q227 357 196 353T142 341L93 370L120 714H480V621H213L196 433Q218 438 245 440T293 443Q356 443
408 419T490 345T521 224Q521 151 489 99T398 18T256 -10Z" />
<glyph unicode="6" horiz-adv-x="600" d="M308 -10Q251 -10 205 10T127 70T77 171T59 313Q59 397 75 471T129 601T232 690T398 723Q418 723 443 722T485 715V624Q467 629 444 632T398 635Q332 635 288 615T218 560T178 475T162 369H168Q182 395 204 414T259 445T331
456Q429 456 485 397T541 232Q541 158 513 104T433 20T308 -10ZM307 80Q366 80 402 116T438 232Q438 300 406 336T310 372Q268 372 235 354T184 306T166 242Q166 218 171 195T188 150T217 114T256 89T307 80Z" />
<glyph unicode="7" horiz-adv-x="600" d="M159 0L432 621H57V714H543V636L272 0H159Z" />
<glyph unicode="8" horiz-adv-x="600" d="M296 -10Q227 -10 175 12T94 77T65 180Q65 228 83 263T133 326T206 374Q172 395 145 421T103 480T88 553Q88 609 117 647T195 704T301 724Q358 724 406 705T482 648T511 553Q511 490 476 449T381 378Q427 354 461 326T515
262T534 181Q534 124 504 81T421 14T296 -10ZM298 76Q363 76 397 107T431 186Q431 218 416 241T369 286T289 331Q251 314 224 293T183 244T169 183Q169 136 200 106T298 76ZM301 422Q333 437 357 454T394 493T408 546Q408 590 379 613T299 636Q250 636 221 613T191
546Q191 513 206 491T247 452T301 422Z" />
<glyph unicode="9" horiz-adv-x="600" d="M208 -10Q185 -10 162 -8T121 -2V90Q140 84 161 81T207 78Q271 78 314 98T383 155T422 239T437 344H431Q418 319 395 300T341 269T269 258Q171 258 115 317T59 484Q59 558 87 611T168 694T293 724Q349 724 395 705T473
644T523 541T541 392Q541 330 532 271T499 161T438 72T343 12T208 -10ZM288 342Q330 342 363 359T415 407T434 478Q434 504 426 531T400 581T356 619T293 634Q233 634 198 597T162 484Q162 411 195 377T288 342Z" />
<glyph unicode=":" horiz-adv-x="600" d="M301 401Q270 401 250 419T230 475Q230 515 249 532T301 549Q332 549 351 532T370 475Q370 438 351 420T301 401ZM300 -10Q269 -10 249 8T229 64Q229 104 249 121T300 138Q331 138 350 121T370 64Q370 27 351 9T300 -10Z" />
<glyph unicode=";" horiz-adv-x="600" d="M206 -145Q217 -101 227 -52T246 45T260 131H376L384 119Q377 92 367 59T344 -9T318 -79T290 -145H206ZM323 401Q292 401 272 419T252 475Q252 515 271 532T323 549Q354 549 373 532T393 475Q393 438 373 420T323 401Z" />
<glyph unicode="&lt;" horiz-adv-x="600" d="M511 114L89 322V378L511 609V519L200 352L511 204V114Z" />
<glyph unicode="=" horiz-adv-x="600" d="M70 401V493H530V401H70ZM70 205V297H530V205H70Z" />
<glyph unicode="&gt;" horiz-adv-x="600" d="M89 114V204L400 352L89 519V609L511 378V322L89 114Z" />
<glyph unicode="?" horiz-adv-x="600" d="M223 236Q223 273 232 300T264 352T322 403Q353 425 372 444T401 487T411 543Q411 584 382 609T297 634Q250 634 210 622T125 588L87 673Q133 695 182 709T297 724Q362 724 410 703T486 643T513 548Q513 503 501 470T465
411T401 355Q366 329 348 311T323 274T316 227V212H223V236ZM273 -10Q242 -10 222 8T202 64Q202 104 222 121T273 138Q304 138 323 121T343 64Q343 27 324 9T273 -10Z" />
<glyph unicode="@" horiz-adv-x="600" d="M323 -89Q223 -89 153 -43T47 89T11 290Q11 382 31 459T90 594T188 682T321 714Q402 714 462 671T556 549T589 359Q589 312 582 267T560 186T521 129T463 108Q430 108 411 132T385 187H383Q369 154 343 131T276 108Q216
108 183 160T150 297Q150 363 171 413T229 491T320 520Q355 520 389 512T446 496L435 295Q434 287 434 278T434 259Q434 211 444 195T466 179Q483 179 493 203T509 269T514 359Q514 497 460 570T320 643Q246 643 194 599T115 477T88 295Q88 198 114 128T193 20T323
-17Q373 -17 416 -6T496 22V-49Q460 -67 418 -78T323 -89ZM289 179Q323 179 337 219T354 324L361 441Q352 444 341 446T318 449Q287 449 269 427T242 369T233 295Q233 233 248 206T289 179Z" />
<glyph unicode="A" horiz-adv-x="600" d="M17 0L239 717H360L583 0H475L330 500Q326 516 321 534T310 575T299 618Q295 597 290 575T279 534T270 500L123 0H17ZM158 207L188 298H409L431 207H158Z" />
<glyph unicode="B" horiz-adv-x="600" d="M91 0V714H292Q404 714 467 674T531 539Q531 470 499 430T409 379V374Q449 366 480 348T530 296T549 208Q549 143 522 96T443 25T320 0H91ZM305 90Q381 90 410 123T440 210Q440 247 427 273T384 313T299 327H190V90H305ZM297
418Q366 418 394 444T423 523Q423 577 392 600T285 624H190V418H297Z" />
<glyph unicode="C" horiz-adv-x="600" d="M361 -10Q256 -10 190 36T93 163T61 353Q61 439 81 507T142 624T241 698T375 724Q427 724 470 713T553 682L515 596Q482 613 445 621T373 630Q322 630 284 612T220 558T183 471T170 354Q170 269 190 209T255 118T369 86Q404
86 442 94T523 120V21Q482 5 443 -2T361 -10Z" />
<glyph unicode="D" horiz-adv-x="600" d="M63 0V714H250Q344 714 413 674T521 557T559 364Q559 245 520 164T408 42T232 0H63ZM224 91Q341 91 396 159T451 361Q451 452 427 509T355 595T241 623H168V91H224Z" />
<glyph unicode="E" horiz-adv-x="600" d="M91 0V714H519V621H195V419H502V326H195V93H519V0H91Z" />
<glyph unicode="F" horiz-adv-x="600" d="M91 0V714H519V621H195V388H502V295H195V0H91Z" />
<glyph unicode="G" horiz-adv-x="600" d="M341 -10Q242 -10 175 31T74 152T41 347Q41 466 76 550T181 679T352 724Q405 724 448 713T530 681L494 594Q467 611 433 620T358 630Q288 630 241 597T171 502T148 351Q148 273 167 213T230 118T345 83Q374 83 396 87T437
96V293H317V384H537V28Q496 11 447 1T341 -10Z" />
<glyph unicode="H" horiz-adv-x="600" d="M63 0V714H169V419H431V714H537V0H431V326H169V0H63Z" />
<glyph unicode="I" horiz-adv-x="600" d="M104 0V73L247 87V627L104 641V714H496V641L351 627V87L496 73V0H104Z" />
<glyph unicode="J" horiz-adv-x="600" d="M247 -10Q210 -10 168 -3T96 17V113Q126 103 166 95T241 86Q281 86 309 101T352 148T367 234V714H472V226Q472 150 448 97T373 17T247 -10Z" />
<glyph unicode="K" horiz-adv-x="600" d="M63 0V714H168V342Q185 371 202 398T239 453L429 714H548L314 392L553 0H433L243 318L168 236V0H63Z" />
<glyph unicode="L" horiz-adv-x="600" d="M108 0V714H214V96H519V0H108Z" />
<glyph unicode="M" horiz-adv-x="600" d="M47 0V714H196L298 299H301L406 714H553V0H454V321Q454 344 455 370T457 424T459 477T462 529T466 575T469 612H464L350 175H250L133 613H128Q130 598 132 578T136 532T140 480T143 424T144 369T145 319V0H47Z" />
<glyph unicode="N" horiz-adv-x="600" d="M63 0V714H205L443 125H446Q444 156 443 184T440 238T439 290T438 342V714H537V0H402L154 610H150Q152 579 154 550T158 492T161 437T162 386V0H63Z" />
<glyph unicode="O" horiz-adv-x="600" d="M299 -10Q231 -10 183 16T102 90T56 206T41 357Q41 469 68 552T152 680T300 726Q368 726 417 701T497 626T544 510T559 359Q559 275 544 207T498 91T417 16T299 -10ZM301 83Q356 83 389 115T436 209T451 358Q451 489 417
561T301 633Q246 633 213 601T164 507T149 358Q149 271 164 210T212 116T301 83Z" />
<glyph unicode="P" horiz-adv-x="600" d="M91 0V714H304Q431 714 490 659T549 501Q549 439 525 386T444 301T292 269H195V0H91ZM281 360Q335 360 371 374T424 419T442 496Q442 564 407 593T297 623H195V360H281Z" />
<glyph unicode="Q" horiz-adv-x="600" d="M428 -180L324 27L399 93L544 -180H428ZM299 -10Q231 -10 183 16T102 90T56 206T41 357Q41 469 68 552T152 680T300 726Q368 726 417 701T497 626T544 510T559 359Q559 275 544 207T498 91T417 16T299 -10ZM301 83Q356
83 389 115T436 209T451 358Q451 489 417 561T301 633Q246 633 213 601T164 507T149 358Q149 271 164 210T212 116T301 83Z" />
<glyph unicode="R" horiz-adv-x="600" d="M91 0V714H265Q349 714 405 691T489 622T518 510Q518 456 501 418T455 354T387 313L574 0H458L293 285H197V0H91ZM262 376Q314 376 346 390T394 433T410 503Q410 569 374 596T259 623H197V376H262Z" />
<glyph unicode="S" horiz-adv-x="600" d="M279 -10Q223 -10 170 0T81 29V126Q123 107 176 94T282 80Q328 80 360 92T408 129T425 192Q425 225 410 244T361 282T267 327Q224 347 185 372T121 435T96 534Q96 597 124 639T203 702T326 724Q376 724 427 713T520 682L486
596Q448 613 407 622T327 632Q290 632 262 622T220 589T205 531Q205 497 219 477T264 440T343 402Q400 376 443 351T510 290T534 193Q534 144 517 107T468 43T388 4T279 -10Z" />
<glyph unicode="T" horiz-adv-x="600" d="M247 0V621H41V714H559V621H353V0H247Z" />
<glyph unicode="U" horiz-adv-x="600" d="M298 -10Q216 -10 164 21T87 112T63 251V714H169V262Q169 206 181 166T222 104T300 83Q352 83 380 105T420 168T431 263V714H537V250Q537 174 514 116T437 24T298 -10Z" />
<glyph unicode="V" horiz-adv-x="600" d="M244 0L21 714H130L260 262Q268 237 275 208T289 151T300 100H305Q309 123 315 150T329 207T343 264L469 714H579L358 0H244Z" />
<glyph unicode="W" horiz-adv-x="600" d="M93 0L21 714H116Q122 655 126 606T134 514T140 435T146 360Q148 334 150 305T154 247T157 190T159 141T160 105H164Q167 125 171 151T181 207T192 262T202 309L250 539H352L401 307Q406 282 412 255T424 201T434 149T442
104H445Q446 120 446 142T447 192T449 249T453 310T457 372Q459 399 461 427T465 486T471 551T477 626T484 714H579L514 0H392L326 303Q320 330 316 355T308 400T303 434H299Q298 421 295 401T288 356T277 303L213 0H93Z" />
<glyph unicode="X" horiz-adv-x="600" d="M31 0L251 369L45 714H157L300 455L443 714H555L350 368L569 0H459L300 282L142 0H31Z" />
<glyph unicode="Y" horiz-adv-x="600" d="M248 0V278L31 714H146L301 370L457 714H569L352 278V0H248Z" />
<glyph unicode="Z" horiz-adv-x="600" d="M91 0V79L398 623H112V714H512V635L206 93H512V0H91Z" />
<glyph unicode="[" horiz-adv-x="600" d="M237 -159V716H466V635H334V-78H466V-159H237Z" />
<glyph unicode="\" horiz-adv-x="600" d="M486 -1H388L114 715H212L486 -1Z" />
<glyph unicode="]" horiz-adv-x="600" d="M363 716V-159H134V-78H266V635H134V716H363Z" />
<glyph unicode="^" horiz-adv-x="600" d="M47 267L262 718H318L553 267H463L291 605L137 267H47Z" />
<glyph unicode="_" horiz-adv-x="600" d="M0 -164V-72H600V-164H0Z" />
<glyph unicode="`" horiz-adv-x="600" d="M321 606Q304 619 283 639T240 680T201 722T173 756V766H294Q305 744 322 717T357 663T391 618V606H321Z" />
<glyph unicode="a" horiz-adv-x="600" d="M239 -10Q158 -10 111 31T64 150Q64 209 91 247T172 305T302 327L419 330V353Q419 415 386 439T293 463Q252 463 213 453T136 424L101 502Q141 522 189 535T298 549Q403 549 460 503T517 360V0H434L420 73H416Q393 44
367 26T308 -1T239 -10ZM265 75Q307 75 342 90T398 136T419 212V259L327 257Q270 255 235 243T183 209T166 156Q166 113 193 94T265 75Z" />
<glyph unicode="b" horiz-adv-x="600" d="M336 -10Q281 -10 241 12T175 66H168L156 0H73V760H176V578Q176 554 175 527T171 469H176Q198 503 239 526T337 549Q387 549 426 531T493 476T534 388T549 271Q549 204 535 152T493 64T426 9T336 -10ZM310 77Q377 77 409
126T441 271Q441 365 409 413T309 462Q246 462 211 415T176 272Q176 176 209 127T310 77Z" />
<glyph unicode="c" horiz-adv-x="600" d="M338 -10Q256 -10 199 19T111 109T81 265Q81 365 113 428T206 520T346 549Q391 549 432 540T509 513L478 427Q444 444 413 451T351 458Q295 458 259 437T206 373T189 267Q189 201 207 160T261 100T350 81Q390 81 428 90T500
116V22Q466 6 424 -2T338 -10Z" />
<glyph unicode="d" horiz-adv-x="600" d="M265 -10Q215 -10 175 8T108 63T66 151T51 272Q51 359 75 421T150 516T275 549Q312 549 340 540T390 513T425 470H430Q429 484 427 499T424 530T423 561V760H527V0H443L427 72H422Q407 47 385 29T333 0T265 -10ZM294 77Q361
77 393 122T426 249V268Q426 324 414 368T374 437T297 462Q230 462 195 413T159 263Q159 169 192 123T294 77Z" />
<glyph unicode="e" horiz-adv-x="600" d="M341 -10Q252 -10 189 22T91 117T57 269Q57 356 88 418T177 515T312 549Q384 549 435 518T515 431T543 295V245H163Q165 184 189 147T254 94T348 77Q390 77 433 88T521 119V28Q476 8 430 -1T341 -10ZM441 325Q440 369
425 400T381 448T313 465Q252 465 213 428T165 325H441Z" />
<glyph unicode="f" horiz-adv-x="600" d="M233 0V451H67V521L233 539V592Q233 656 257 694T325 748T432 765Q474 765 509 759T573 744L548 662Q526 668 498 672T444 677Q393 677 366 656T339 579V539H533V451H339V0H233Z" />
<glyph unicode="g" horiz-adv-x="600" d="M271 -245Q220 -245 172 -236T82 -209V-112Q124 -135 175 -146T272 -157Q356 -157 390 -119T425 -12V5Q425 18 426 30T428 63H424Q396 23 359 7T270 -10Q166 -10 109 63T51 267Q51 399 108 474T266 549Q319 549 356 531T422
472H427L444 539H527V-10Q527 -87 500 -139T416 -218T271 -245ZM297 77Q329 77 353 87T395 119T421 172T430 248V268Q430 337 415 379T369 442T294 462Q224 462 192 412T159 269Q159 176 192 127T297 77Z" />
<glyph unicode="h" horiz-adv-x="600" d="M73 0V760H179V562Q179 539 178 509T175 458H181Q198 489 222 509T277 539T345 549Q431 549 481 501T532 352V0H426V328Q426 399 397 430T315 462Q273 462 242 441T195 377T179 272V0H73Z" />
<glyph unicode="i" horiz-adv-x="600" d="M74 0V69L262 88V451L93 465V539H369V88L543 69V0H74ZM309 626Q278 626 259 643T239 695Q239 730 258 747T310 765Q341 765 360 748T380 695Q380 661 361 644T309 626Z" />
<glyph unicode="j" horiz-adv-x="600" d="M193 -245Q161 -245 123 -240T54 -227V-135Q74 -141 95 -145T139 -152T180 -155Q223 -155 249 -141T288 -98T300 -23V451L131 465V539H406V-42Q406 -142 352 -193T193 -245ZM343 626Q312 626 293 643T274 696Q274 730
292 747T343 765Q375 765 394 748T414 696Q414 660 394 643T343 626Z" />
<glyph unicode="k" horiz-adv-x="600" d="M92 0V760H198V398Q198 378 197 354T195 306T191 258H193Q210 282 227 303T264 346L435 539H561L352 309L574 0H455L283 245L198 167V0H92Z" />
<glyph unicode="l" horiz-adv-x="600" d="M74 0V69L265 88V672L89 690V760H372V88L543 69V0H74Z" />
<glyph unicode="m" horiz-adv-x="600" d="M44 0V539H117L131 477H136Q149 504 163 519T196 542T236 549Q278 549 300 529T334 468H338Q355 507 380 528T448 549Q490 549 513 528T547 463T557 351V0H463V349Q463 384 460 408T447 445T415 459Q393 459 378 441T356
386T348 293V0H254V349Q254 385 250 409T234 446T201 459Q177 459 163 439T143 383T137 293V0H44Z" />
<glyph unicode="n" horiz-adv-x="600" d="M73 0V539H156L172 463H178Q194 492 219 511T277 539T350 549Q434 549 483 502T532 357V0H426V335Q426 401 400 431T317 462Q242 462 211 411T179 270V0H73Z" />
<glyph unicode="o" horiz-adv-x="600" d="M301 -10Q246 -10 200 8T121 61T69 149T51 270Q51 362 82 423T170 517T299 549Q372 549 428 518T517 424T549 269Q549 201 531 149T481 62T403 8T301 -10ZM301 76Q348 76 379 99T426 167T442 270Q442 330 427 373T380
439T300 463Q228 463 193 412T157 270Q157 211 173 167T221 100T301 76Z" />
<glyph unicode="p" horiz-adv-x="600" d="M73 -240V539H157L172 467H177Q194 493 217 511T270 539T338 549Q388 549 427 531T494 476T535 388T549 270Q549 180 523 117T449 22T336 -10Q300 -10 270 0T217 27T177 66H171Q175 43 176 23T177 -13V-240H73ZM309 77Q378
77 409 125T440 272Q440 368 410 415T308 462Q242 462 210 418T177 290V271Q177 179 207 128T309 77Z" />
<glyph unicode="q" horiz-adv-x="600" d="M423 -11Q423 1 423 14T425 42T427 72H423Q401 37 362 14T265 -10Q215 -10 176 8T108 63T66 151T51 268Q51 335 65 386T108 474T177 530T267 549Q323 549 361 527T425 468H429L444 539H527V-240H423V-11ZM293 77Q360 77
392 121T425 249V268Q425 362 394 412T291 462Q223 462 192 412T160 267Q160 179 192 128T293 77Z" />
<glyph unicode="r" horiz-adv-x="600" d="M56 0V69L213 88V451L75 465V539H296L310 443H315Q343 494 378 521T470 549Q499 549 525 544T575 528L547 433Q531 441 510 446T464 452Q420 452 388 427T338 360T320 267V88L472 69V0H56Z" />
<glyph unicode="s" horiz-adv-x="600" d="M277 -10Q227 -10 181 -2T98 23V122Q135 105 181 92T285 78Q343 78 369 95T395 146Q395 167 384 180T346 206T268 239Q219 261 182 281T125 329T105 401Q105 451 131 484T204 533T316 549Q363 549 407 540T496 512L464
430Q422 447 387 454T315 461Q261 461 236 448T210 404Q210 383 223 369T264 343T336 311Q387 291 424 272T482 225T502 147Q502 95 477 60T401 8T277 -10Z" />
<glyph unicode="t" horiz-adv-x="600" d="M399 -10Q338 -10 292 6T221 62T195 170V451H55V521L198 541L218 680H301V539H509V451H301V187Q301 147 313 123T350 88T411 77Q437 77 465 82T521 92V8Q493 0 462 -5T399 -10Z" />
<glyph unicode="u" horiz-adv-x="600" d="M253 -10Q160 -10 114 38T68 182V539H174V203Q174 142 198 110T283 77Q337 77 367 100T409 166T421 269V539H527V0H444L428 71H422Q404 43 379 25T323 -1T253 -10Z" />
<glyph unicode="v" horiz-adv-x="600" d="M237 0L38 539H149L257 223Q267 192 278 159T299 90H302Q312 126 323 158T345 223L450 539H562L360 0H237Z" />
<glyph unicode="w" horiz-adv-x="600" d="M96 0L12 539H110L145 269Q150 237 152 211T157 156T162 89H165Q168 111 173 139T184 198T198 258L247 444H353L400 257Q408 230 414 200T427 140T435 89H439Q442 126 444 154T448 209T456 269L493 539H589L504 0H379L334
195Q325 234 317 269T301 340H298Q291 304 282 269T264 195L218 0H96Z" />
<glyph unicode="x" horiz-adv-x="600" d="M38 0L238 275L47 539H170L301 347L433 539H555L363 275L562 0H439L301 203L160 0H38Z" />
<glyph unicode="y" horiz-adv-x="600" d="M135 -245Q116 -245 97 -243T63 -237V-152Q75 -154 91 -156T121 -158Q152 -158 172 -148T208 -116T237 -62L260 -2L38 539H146L267 224Q279 196 289 163T308 96H311Q317 119 323 141T336 184T349 225L451 539H562L341
-58Q320 -116 295 -158T231 -222T135 -245Z" />
<glyph unicode="z" horiz-adv-x="600" d="M83 0V69L387 457H98V539H509V460L213 87H517V0H83Z" />
<glyph unicode="{" horiz-adv-x="600" d="M461 -159Q394 -158 349 -142T281 -91T258 -3V144Q258 193 228 214T139 236V320Q197 321 227 342T258 412V560Q258 613 281 647T350 698T461 715V633Q429 632 406 624T370 597T357 546V402Q357 351 331 321T250 282V276Q305
266 331 236T357 156V9Q357 -37 384 -56T461 -77V-159Z" />
<glyph unicode="|" horiz-adv-x="600" d="M258 -240V760H342V-240H258Z" />
<glyph unicode="}" horiz-adv-x="600" d="M139 715Q207 715 251 699T319 648T342 559V412Q342 363 372 342T461 320V236Q403 235 373 214T342 144V-4Q342 -57 319 -91T251 -142T139 -159V-77Q172 -76 195 -68T230 -40T243 10V154Q243 205 269 235T350 274V280Q296
290 270 320T243 400V547Q243 593 216 612T139 633V715Z" />
<glyph unicode="~" horiz-adv-x="600" d="M72 282Q74 313 80 344T99 403T136 445T197 461Q220 461 239 454T279 433T322 395Q346 373 364 359T402 345Q430 345 443 375T462 461H526Q524 431 517 400T497 343T460 299T402 282Q380 282 360 289T320 311T280 346Q254
372 236 385T197 398Q168 398 153 370T135 282H72Z" />
<glyph unicode="&#xa0;" horiz-adv-x="600" />
<glyph unicode="&#xa1;" horiz-adv-x="600" d="M345 317L363 -185H236L254 317H345ZM300 539Q331 539 351 521T371 465Q371 426 351 409T300 391Q270 391 250 409T230 465Q230 503 250 521T300 539Z" />
<glyph unicode="&#xa2;" horiz-adv-x="600" d="M296 89Q231 98 184 129T111 217T84 362Q85 449 111 508T184 599T296 641V724H368V645Q410 644 450 635T516 614L486 530Q459 541 424 549T353 557Q298 557 262 536T207 472T188 363Q188 298 206 256T261 194T350
174Q395 174 434 183T505 207V118Q479 104 444 96T367 86V-10H296V89Z" />
<glyph unicode="&#xa3;" horiz-adv-x="600" d="M87 87Q114 95 133 111T164 155T175 223V318H89V395H175V530Q175 624 228 673T367 723Q413 723 450 713T521 683L487 602Q458 619 432 627T376 635Q330 635 305 609T279 524V395H452V318H279V224Q279 196 270 170T247
124T215 93H529V0H87V87Z" />
<glyph unicode="&#xa4;" horiz-adv-x="600" d="M410 197Q386 182 359 173T300 164Q269 164 241 173T189 198L123 133L68 187L134 253Q118 277 109 305T100 364Q100 394 109 422T134 473L67 541L123 595L189 530Q212 547 241 555T300 564Q331 564 358 556T410 530L477
595L533 542L467 474Q482 451 492 423T502 363Q502 332 493 304T467 252L531 186L477 132L410 197ZM300 242Q335 242 363 256T407 298T424 364Q424 402 408 430T364 473T300 488Q266 488 238 473T194 429T178 364Q178 325 194 298T239 257T300 242Z" />
<glyph unicode="&#xa5;" horiz-adv-x="600" d="M249 0V124H105V194H249V272H105V343H221L32 714H141L299 383L460 714H568L375 343H495V272H350V194H495V124H350V0H249Z" />
<glyph unicode="&#xa6;" horiz-adv-x="600" d="M257 374V759H342V374H257ZM257 -238V148H342V-238H257Z" />
<glyph unicode="&#xa7;" horiz-adv-x="600" d="M276 -10Q222 -10 181 -1T107 25V107Q129 96 157 86T217 69T278 62Q342 62 368 82T394 131Q394 150 386 165T352 195T275 231Q223 252 187 273T132 322T113 392Q113 440 137 470T193 517Q157 537 137 566T117 634Q117
695 168 730T313 765Q367 765 407 755T484 730L453 658Q421 674 388 683T311 692Q258 692 236 677T213 636Q213 618 224 604T261 575T332 543Q383 524 419 502T473 452T492 383Q492 335 470 304T418 254Q453 234 471 205T490 137Q490 68 434 29T276 -10ZM349 287Q370
300 387 320T405 370Q405 393 393 412T350 448T263 484Q238 477 218 456T198 405Q198 383 211 365T252 331T327 295L349 287Z" />
<glyph unicode="&#xa8;" horiz-adv-x="600" d="M416 618Q392 618 375 634T357 682Q357 715 374 729T416 744Q441 744 458 730T476 682Q476 650 459 634T416 618ZM186 618Q161 618 144 634T127 682Q127 715 144 729T186 744Q210 744 228 730T246 682Q246 650 228
634T186 618Z" />
<glyph unicode="&#xa9;" horiz-adv-x="600" d="M299 96Q217 96 159 130T70 223T39 356Q39 433 71 492T163 584T301 618Q382 618 440 584T529 491T561 357Q561 279 529 220T437 129T299 96ZM312 194Q238 194 202 238T165 354Q165 428 203 474T311 520Q335 520 358
515T401 498L379 446Q362 456 346 460T314 464Q274 464 252 436T229 353Q229 303 249 276T312 248Q330 248 350 252T389 264V210Q372 203 354 199T312 194ZM299 148Q360 148 405 173T477 246T503 356Q503 420 478 466T406 538T299 564Q238 564 193 538T122 466T97
357Q97 296 122 249T192 175T299 148Z" />
<glyph unicode="&#xaa;" horiz-adv-x="600" d="M256 379Q207 379 178 404T149 478Q149 514 167 537T221 573T311 587L365 589V607Q365 638 346 651T295 664Q271 664 246 657T197 638L172 691Q199 705 232 713T303 722Q370 722 403 693T436 604V385H384L371 430Q351
407 323 393T256 379ZM277 436Q320 436 342 458T365 519V540L317 538Q261 536 242 521T223 481Q223 456 237 446T277 436Z" />
<glyph unicode="&#xab;" horiz-adv-x="600" d="M449 51L280 260V273L449 483L520 438L389 267L520 96L449 51ZM248 52L80 260V273L248 483L319 436L188 267L318 96L248 52Z" />
<glyph unicode="&#xac;" horiz-adv-x="600" d="M435 126V312H74V393H516V126H435Z" />
<glyph unicode="&#xad;" horiz-adv-x="600" d="M150 223V316H450V223H150Z" />
<glyph unicode="&#xae;" horiz-adv-x="600" d="M299 96Q217 96 159 130T70 224T39 357Q39 434 71 492T163 584T301 618Q382 618 440 584T529 492T561 357Q561 279 529 220T437 129T299 96ZM299 149Q360 149 405 174T477 246T503 357Q503 420 478 466T406 538T299
564Q238 564 193 538T122 466T97 357Q97 296 122 249T192 176T299 149ZM205 204V515H295Q353 515 381 491T410 422Q410 386 394 366T357 336L431 204H365L303 323H262V204H205ZM293 369Q319 369 334 381T350 419Q350 443 336 454T293 466H262V369H293Z" />
<glyph unicode="&#xaf;" horiz-adv-x="600" d="M151 619V698H450V619H151Z" />
<glyph unicode="&#xb0;" horiz-adv-x="600" d="M301 417Q255 417 221 437T167 492T147 571Q147 614 167 648T222 703T301 724Q344 724 378 704T433 649T454 571Q454 527 435 493T381 438T301 417ZM301 484Q338 484 361 507T385 571Q385 610 361 633T301 657Q265
657 241 634T216 571Q216 532 241 508T301 484Z" />
<glyph unicode="&#xb1;" horiz-adv-x="600" d="M258 133V325H75V406H258V600H340V406H523V325H340V133H258ZM77 0V82H523V0H77Z" />
<glyph unicode="&#xb2;" horiz-adv-x="600" d="M155 416V479L262 583Q299 618 320 641T352 684T362 727Q362 758 344 772T296 786Q268 786 245 775T196 743L157 796Q185 822 221 837T302 853Q365 853 402 822T440 733Q440 697 426 669T385 614T319 548L253 485H456V416H155Z"
/>
<glyph unicode="&#xb3;" horiz-adv-x="600" d="M279 408Q245 408 215 415T154 437V509Q186 492 218 483T282 473Q325 473 345 491T366 540Q366 574 342 590T270 606H216V667H268Q314 667 334 685T354 732Q354 761 337 774T292 788Q268 788 244 779T194 751L155
803Q185 826 219 839T297 853Q362 853 397 823T433 742Q433 704 414 679T364 641V638Q403 630 424 604T446 535Q446 479 405 444T279 408Z" />
<glyph unicode="&#xb4;" horiz-adv-x="600" d="M239 618Q255 638 272 664T307 717T335 766H457V756Q444 738 418 710T362 653T308 606H239V618Z" />
<glyph unicode="&#xb5;" horiz-adv-x="600" d="M68 -240V227H174V-240H68ZM253 -10Q160 -10 114 38T68 182V539H174V203Q174 142 198 110T283 77Q337 77 367 100T409 166T421 269V539H527V0H444L428 71H422Q404 43 379 25T323 -1T253 -10Z" />
<glyph unicode="&#xb6;" horiz-adv-x="600" d="M322 273Q307 269 287 267T246 264Q185 264 140 287T71 365T47 509Q47 603 73 658T147 736T261 760H542V-127H479V696H386V-127H322V273Z" />
<glyph unicode="&#xb7;" horiz-adv-x="600" d="M300 268Q269 268 249 286T229 342Q229 382 249 399T300 416Q331 416 350 399T370 342Q370 305 351 287T300 268Z" />
<glyph unicode="&#xb8;" horiz-adv-x="600" d="M256 -240Q239 -240 224 -238T199 -234V-173Q209 -176 223 -177T252 -179Q283 -179 301 -170T320 -137Q320 -112 298 -101T234 -84L274 5H337L315 -48Q351 -56 376 -77T401 -140Q401 -186 365 -213T256 -240Z" />
<glyph unicode="&#xb9;" horiz-adv-x="600" d="M279 673Q279 699 280 721T282 765Q273 757 262 750T241 735L184 702L147 762L284 844H354V416H279V673ZM177 416V471L283 479H347L458 471V416H177Z" />
<glyph unicode="&#xba;" horiz-adv-x="600" d="M298 379Q232 379 191 423T150 551Q150 634 190 678T300 722Q344 722 377 702T430 644T449 551Q449 467 408 423T298 379ZM299 439Q339 439 357 467T375 551Q375 589 367 613T343 650T299 662Q260 662 242 633T223
551Q223 496 241 468T299 439Z" />
<glyph unicode="&#xbb;" horiz-adv-x="600" d="M152 484L320 275V261L152 52L81 97L212 268L81 439L152 484ZM353 483L520 275V261L353 52L282 98L413 268L282 439L353 483Z" />
<glyph unicode="&#xbc;" horiz-adv-x="600" d="M72 22L454 685H540L159 22H72ZM32 371V425L117 432H168L258 425V371H32ZM454 0V73H300V129L450 345H523V133H575V73H523V0H454ZM371 133H454V204Q454 223 455 235T456 265Q452 255 445 243T429 219L371 133ZM109
555Q109 579 109 599T111 641Q102 632 92 625T71 611L40 594L5 653L111 714H178V371H109V555Z" />
<glyph unicode="&#xbd;" horiz-adv-x="600" d="M72 22L454 685H540L159 22H72ZM32 371V425L117 432H168L258 425V371H32ZM335 0V58L421 142Q451 170 466 186T488 216T494 245Q494 267 481 278T447 290Q426 290 409 281T374 256L337 305Q359 325 387 338T451 352Q507
352 537 325T567 251Q567 224 557 203T527 159T474 107L426 65H577V0H335ZM109 555Q109 579 109 599T111 641Q102 632 92 625T71 611L40 594L5 653L111 714H178V371H109V555Z" />
<glyph unicode="&#xbe;" horiz-adv-x="600" d="M72 22L454 685H540L159 22H72ZM454 0V73H300V129L450 345H523V133H575V73H523V0H454ZM371 133H454V204Q454 223 455 235T456 265Q452 255 445 243T429 219L371 133ZM124 365Q98 365 75 369T30 385V452Q55 439 79
433T126 426Q158 426 173 439T189 475Q189 498 171 508T119 518H73V576H117Q151 576 166 588T181 621Q181 643 168 653T134 663Q115 663 97 655T59 634L23 682Q48 701 75 712T138 723Q195 723 225 698T256 630Q256 600 242 581T205 553V550Q265 534 265 472Q265
424 231 395T124 365Z" />
<glyph unicode="&#xbf;" horiz-adv-x="600" d="M353 293Q353 257 344 229T313 177T254 126Q223 104 204 85T175 42T165 -14Q165 -54 194 -79T279 -105Q327 -105 367 -93T451 -59L489 -144Q444 -166 394 -180T279 -195Q214 -195 166 -174T90 -114T63 -19Q63 27
75 59T112 119T175 174Q211 200 229 218T253 256T260 302V317H353V293ZM303 539Q334 539 354 521T374 465Q374 426 354 409T303 391Q273 391 253 409T233 465Q233 503 253 521T303 539Z" />
<glyph unicode="&#xc0;" horiz-adv-x="600" d="M17 0L239 717H360L583 0H475L330 500Q326 516 321 534T310 575T299 618Q295 597 290 575T279 534T270 500L123 0H17ZM158 207L188 298H409L431 207H158ZM305 781Q288 794 267 814T224 855T185 897T157 931V941H278Q289
919 306 892T341 838T375 793V781H305Z" />
<glyph unicode="&#xc1;" horiz-adv-x="600" d="M17 0L239 717H360L583 0H475L330 500Q326 516 321 534T310 575T299 618Q295 597 290 575T279 534T270 500L123 0H17ZM158 207L188 298H409L431 207H158ZM251 793Q267 813 284 839T319 892T347 941H469V931Q456 913
430 885T374 828T320 781H251V793Z" />
<glyph unicode="&#xc2;" horiz-adv-x="600" d="M17 0L239 717H360L583 0H475L330 500Q326 516 321 534T310 575T299 618Q295 597 290 575T279 534T270 500L123 0H17ZM158 207L188 298H409L431 207H158ZM127 793Q145 812 168 838T212 892T246 941H353Q365 919 386
892T431 839T473 793V781H403Q379 797 352 822T298 874Q272 847 246 822T195 781H127V793Z" />
<glyph unicode="&#xc3;" horiz-adv-x="600" d="M17 0L239 717H360L583 0H475L330 500Q326 516 321 534T310 575T299 618Q295 597 290 575T279 534T270 500L123 0H17ZM158 207L188 298H409L431 207H158ZM117 781Q120 811 128 835T150 878T183 905T227 915Q248 915
268 907T306 888T342 868T376 860Q397 860 408 874T426 916H483Q478 853 449 818T374 782Q353 782 333 790T295 809T260 829T225 837Q203 837 192 823T174 781H117Z" />
<glyph unicode="&#xc4;" horiz-adv-x="600" d="M17 0L239 717H360L583 0H475L330 500Q326 516 321 534T310 575T299 618Q295 597 290 575T279 534T270 500L123 0H17ZM158 207L188 298H409L431 207H158ZM414 793Q390 793 373 809T355 857Q355 890 372 904T414 919Q439
919 456 905T474 857Q474 825 457 809T414 793ZM184 793Q159 793 142 809T125 857Q125 890 142 904T184 919Q208 919 226 905T244 857Q244 825 226 809T184 793Z" />
<glyph unicode="&#xc5;" horiz-adv-x="600" d="M17 0L239 717H360L583 0H475L330 500Q326 516 321 534T310 575T299 618Q295 597 290 575T279 534T270 500L123 0H17ZM158 207L188 298H409L431 207H158ZM299 781Q249 781 218 810T187 890Q187 941 218 969T299 998Q347
998 380 969T413 891Q413 839 381 810T299 781ZM299 838Q322 838 336 852T351 890Q351 914 336 927T299 941Q278 941 263 928T248 890Q248 866 262 852T299 838Z" />
<glyph unicode="&#xc6;" horiz-adv-x="600" d="M17 0L180 714H551V621H383V419H532V327H383V93H551V0H286V621H251L118 0H17ZM132 206L153 297H311V206H132Z" />
<glyph unicode="&#xc7;" horiz-adv-x="600" d="M361 -10Q256 -10 190 36T93 163T61 353Q61 439 81 507T142 624T241 698T375 724Q427 724 470 713T553 682L515 596Q482 613 445 621T373 630Q322 630 284 612T220 558T183 471T170 354Q170 269 190 209T255 118T369
86Q404 86 442 94T523 120V21Q482 5 443 -2T361 -10ZM300 -240Q283 -240 268 -238T243 -234V-173Q253 -176 267 -177T296 -179Q327 -179 345 -170T364 -137Q364 -112 342 -101T278 -84L318 5H381L359 -48Q395 -56 420 -77T445 -140Q445 -186 409 -213T300 -240Z"
/>
<glyph unicode="&#xc8;" horiz-adv-x="600" d="M91 0V714H519V621H195V419H502V326H195V93H519V0H91ZM311 781Q294 794 273 814T230 855T191 897T163 931V941H284Q295 919 312 892T347 838T381 793V781H311Z" />
<glyph unicode="&#xc9;" horiz-adv-x="600" d="M91 0V714H519V621H195V419H502V326H195V93H519V0H91ZM257 793Q273 813 290 839T325 892T353 941H475V931Q462 913 436 885T380 828T326 781H257V793Z" />
<glyph unicode="&#xca;" horiz-adv-x="600" d="M91 0V714H519V621H195V419H502V326H195V93H519V0H91ZM133 793Q151 812 174 838T218 892T252 941H359Q371 919 392 892T437 839T479 793V781H409Q385 797 358 822T304 874Q278 847 252 822T201 781H133V793Z" />
<glyph unicode="&#xcb;" horiz-adv-x="600" d="M91 0V714H519V621H195V419H502V326H195V93H519V0H91ZM420 793Q396 793 379 809T361 857Q361 890 378 904T420 919Q445 919 462 905T480 857Q480 825 463 809T420 793ZM190 793Q165 793 148 809T131 857Q131 890
148 904T190 919Q214 919 232 905T250 857Q250 825 232 809T190 793Z" />
<glyph unicode="&#xcc;" horiz-adv-x="600" d="M104 0V73L247 87V627L104 641V714H496V641L351 627V87L496 73V0H104ZM305 781Q288 794 267 814T224 855T185 897T157 931V941H278Q289 919 306 892T341 838T375 793V781H305Z" />
<glyph unicode="&#xcd;" horiz-adv-x="600" d="M104 0V73L247 87V627L104 641V714H496V641L351 627V87L496 73V0H104ZM251 793Q267 813 284 839T319 892T347 941H469V931Q456 913 430 885T374 828T320 781H251V793Z" />
<glyph unicode="&#xce;" horiz-adv-x="600" d="M104 0V73L247 87V627L104 641V714H496V641L351 627V87L496 73V0H104ZM127 793Q145 812 168 838T212 892T246 941H353Q365 919 386 892T431 839T473 793V781H403Q379 797 352 822T298 874Q272 847 246 822T195 781H127V793Z" />
<glyph unicode="&#xcf;" horiz-adv-x="600" d="M104 0V73L247 87V627L104 641V714H496V641L351 627V87L496 73V0H104ZM414 793Q390 793 373 809T355 857Q355 890 372 904T414 919Q439 919 456 905T474 857Q474 825 457 809T414 793ZM184 793Q159 793 142 809T125
857Q125 890 142 904T184 919Q208 919 226 905T244 857Q244 825 226 809T184 793Z" />
<glyph unicode="&#xd0;" horiz-adv-x="600" d="M0 308V398H293V308H0ZM70 0V714H257Q351 714 420 674T528 557T566 364Q566 245 527 164T415 42T239 0H70ZM231 91Q348 91 403 159T458 361Q458 452 434 509T362 595T248 623H175V91H231Z" />
<glyph unicode="&#xd1;" horiz-adv-x="600" d="M63 0V714H205L443 125H446Q444 156 443 184T440 238T439 290T438 342V714H537V0H402L154 610H150Q152 579 154 550T158 492T161 437T162 386V0H63ZM122 781Q125 811 133 835T155 878T188 905T232 915Q253 915 273
907T311 888T347 868T381 860Q402 860 413 874T431 916H488Q483 853 454 818T379 782Q358 782 338 790T300 809T265 829T230 837Q208 837 197 823T179 781H122Z" />
<glyph unicode="&#xd2;" horiz-adv-x="600" d="M299 -10Q231 -10 183 16T102 90T56 206T41 357Q41 469 68 552T152 680T300 726Q368 726 417 701T497 626T544 510T559 359Q559 275 544 207T498 91T417 16T299 -10ZM301 83Q356 83 389 115T436 209T451 358Q451
489 417 561T301 633Q246 633 213 601T164 507T149 358Q149 271 164 210T212 116T301 83ZM305 781Q288 794 267 814T224 855T185 897T157 931V941H278Q289 919 306 892T341 838T375 793V781H305Z" />
<glyph unicode="&#xd3;" horiz-adv-x="600" d="M299 -10Q231 -10 183 16T102 90T56 206T41 357Q41 469 68 552T152 680T300 726Q368 726 417 701T497 626T544 510T559 359Q559 275 544 207T498 91T417 16T299 -10ZM301 83Q356 83 389 115T436 209T451 358Q451
489 417 561T301 633Q246 633 213 601T164 507T149 358Q149 271 164 210T212 116T301 83ZM251 793Q267 813 284 839T319 892T347 941H469V931Q456 913 430 885T374 828T320 781H251V793Z" />
<glyph unicode="&#xd4;" horiz-adv-x="600" d="M299 -10Q231 -10 183 16T102 90T56 206T41 357Q41 469 68 552T152 680T300 726Q368 726 417 701T497 626T544 510T559 359Q559 275 544 207T498 91T417 16T299 -10ZM301 83Q356 83 389 115T436 209T451 358Q451
489 417 561T301 633Q246 633 213 601T164 507T149 358Q149 271 164 210T212 116T301 83ZM127 793Q145 812 168 838T212 892T246 941H353Q365 919 386 892T431 839T473 793V781H403Q379 797 352 822T298 874Q272 847 246 822T195 781H127V793Z" />
<glyph unicode="&#xd5;" horiz-adv-x="600" d="M299 -10Q231 -10 183 16T102 90T56 206T41 357Q41 469 68 552T152 680T300 726Q368 726 417 701T497 626T544 510T559 359Q559 275 544 207T498 91T417 16T299 -10ZM301 83Q356 83 389 115T436 209T451 358Q451
489 417 561T301 633Q246 633 213 601T164 507T149 358Q149 271 164 210T212 116T301 83ZM117 781Q120 811 128 835T150 878T183 905T227 915Q248 915 268 907T306 888T342 868T376 860Q397 860 408 874T426 916H483Q478 853 449 818T374 782Q353 782 333 790T295
809T260 829T225 837Q203 837 192 823T174 781H117Z" />
<glyph unicode="&#xd6;" horiz-adv-x="600" d="M299 -10Q231 -10 183 16T102 90T56 206T41 357Q41 469 68 552T152 680T300 726Q368 726 417 701T497 626T544 510T559 359Q559 275 544 207T498 91T417 16T299 -10ZM301 83Q356 83 389 115T436 209T451 358Q451
489 417 561T301 633Q246 633 213 601T164 507T149 358Q149 271 164 210T212 116T301 83ZM414 793Q390 793 373 809T355 857Q355 890 372 904T414 919Q439 919 456 905T474 857Q474 825 457 809T414 793ZM184 793Q159 793 142 809T125 857Q125 890 142 904T184
919Q208 919 226 905T244 857Q244 825 226 809T184 793Z" />
<glyph unicode="&#xd7;" horiz-adv-x="600" d="M142 137L85 194L242 353L84 511L141 569L300 411L460 569L517 513L358 353L516 193L459 137L299 294L142 137Z" />
<glyph unicode="&#xd8;" horiz-adv-x="600" d="M112 -39L43 1L494 750L561 710L112 -39ZM299 -10Q231 -10 183 16T102 90T56 206T41 357Q41 469 68 552T152 680T300 726Q368 726 417 701T497 626T544 510T559 359Q559 275 544 207T498 91T417 16T299 -10ZM301
83Q356 83 389 115T436 209T451 358Q451 489 417 561T301 633Q246 633 213 601T164 507T149 358Q149 271 164 210T212 116T301 83Z" />
<glyph unicode="&#xd9;" horiz-adv-x="600" d="M298 -10Q216 -10 164 21T87 112T63 251V714H169V262Q169 206 181 166T222 104T300 83Q352 83 380 105T420 168T431 263V714H537V250Q537 174 514 116T437 24T298 -10ZM305 781Q288 794 267 814T224 855T185 897T157
931V941H278Q289 919 306 892T341 838T375 793V781H305Z" />
<glyph unicode="&#xda;" horiz-adv-x="600" d="M298 -10Q216 -10 164 21T87 112T63 251V714H169V262Q169 206 181 166T222 104T300 83Q352 83 380 105T420 168T431 263V714H537V250Q537 174 514 116T437 24T298 -10ZM251 793Q267 813 284 839T319 892T347 941H469V931Q456
913 430 885T374 828T320 781H251V793Z" />
<glyph unicode="&#xdb;" horiz-adv-x="600" d="M298 -10Q216 -10 164 21T87 112T63 251V714H169V262Q169 206 181 166T222 104T300 83Q352 83 380 105T420 168T431 263V714H537V250Q537 174 514 116T437 24T298 -10ZM127 793Q145 812 168 838T212 892T246 941H353Q365
919 386 892T431 839T473 793V781H403Q379 797 352 822T298 874Q272 847 246 822T195 781H127V793Z" />
<glyph unicode="&#xdc;" horiz-adv-x="600" d="M298 -10Q216 -10 164 21T87 112T63 251V714H169V262Q169 206 181 166T222 104T300 83Q352 83 380 105T420 168T431 263V714H537V250Q537 174 514 116T437 24T298 -10ZM414 793Q390 793 373 809T355 857Q355 890
372 904T414 919Q439 919 456 905T474 857Q474 825 457 809T414 793ZM184 793Q159 793 142 809T125 857Q125 890 142 904T184 919Q208 919 226 905T244 857Q244 825 226 809T184 793Z" />
<glyph unicode="&#xdd;" horiz-adv-x="600" d="M248 0V278L31 714H146L301 370L457 714H569L352 278V0H248ZM251 793Q267 813 284 839T319 892T347 941H469V931Q456 913 430 885T374 828T320 781H251V793Z" />
<glyph unicode="&#xde;" horiz-adv-x="600" d="M91 0V714H195V587H304Q431 587 490 532T549 374Q549 312 525 259T444 174T292 142H195V0H91ZM281 233Q335 233 371 247T424 292T442 369Q442 432 407 464T297 496H195V233H281Z" />
<glyph unicode="&#xdf;" horiz-adv-x="600" d="M381 -10Q341 -10 306 -2T244 23V116Q269 100 305 88T380 75Q427 75 448 95T470 155Q470 178 462 192T435 222T380 262Q344 287 322 307T288 349T277 398Q277 431 290 454T322 493T361 525T393 559T406 602Q406 641
375 659T294 677Q260 677 233 667T189 633T173 570V0H69V575Q69 643 98 684T177 745T293 765Q358 765 407 748T484 698T512 614Q512 578 499 553T465 508T425 473T392 441T378 406Q378 393 387 382T415 357T464 323Q497 299 522 277T560 225T574 153Q574 98 551
62T484 8T381 -10Z" />
<glyph unicode="&#xe0;" horiz-adv-x="600" d="M239 -10Q158 -10 111 31T64 150Q64 209 91 247T172 305T302 327L419 330V353Q419 415 386 439T293 463Q252 463 213 453T136 424L101 502Q141 522 189 535T298 549Q403 549 460 503T517 360V0H434L420 73H416Q393
44 367 26T308 -1T239 -10ZM265 75Q307 75 342 90T398 136T419 212V259L327 257Q270 255 235 243T183 209T166 156Q166 113 193 94T265 75ZM567 606Q550 619 529 639T486 680T447 722T419 756V766H540Q551 744 568 717T603 663T637 618V606H567Z" />
<glyph unicode="&#xe1;" horiz-adv-x="600" d="M239 -10Q158 -10 111 31T64 150Q64 209 91 247T172 305T302 327L419 330V353Q419 415 386 439T293 463Q252 463 213 453T136 424L101 502Q141 522 189 535T298 549Q403 549 460 503T517 360V0H434L420 73H416Q393
44 367 26T308 -1T239 -10ZM265 75Q307 75 342 90T398 136T419 212V259L327 257Q270 255 235 243T183 209T166 156Q166 113 193 94T265 75ZM256 618Q272 638 289 664T324 717T352 766H474V756Q461 738 435 710T379 653T325 606H256V618Z" />
<glyph unicode="&#xe2;" horiz-adv-x="600" d="M239 -10Q158 -10 111 31T64 150Q64 209 91 247T172 305T302 327L419 330V353Q419 415 386 439T293 463Q252 463 213 453T136 424L101 502Q141 522 189 535T298 549Q403 549 460 503T517 360V0H434L420 73H416Q393
44 367 26T308 -1T239 -10ZM265 75Q307 75 342 90T398 136T419 212V259L327 257Q270 255 235 243T183 209T166 156Q166 113 193 94T265 75ZM133 618Q151 637 174 663T218 717T252 766H359Q371 744 392 717T437 664T479 618V606H409Q385 622 358 647T304 699Q278
672 252 647T201 606H133V618Z" />
<glyph unicode="&#xe3;" horiz-adv-x="600" d="M239 -10Q158 -10 111 31T64 150Q64 209 91 247T172 305T302 327L419 330V353Q419 415 386 439T293 463Q252 463 213 453T136 424L101 502Q141 522 189 535T298 549Q403 549 460 503T517 360V0H434L420 73H416Q393
44 367 26T308 -1T239 -10ZM265 75Q307 75 342 90T398 136T419 212V259L327 257Q270 255 235 243T183 209T166 156Q166 113 193 94T265 75ZM123 606Q126 636 134 660T156 703T189 730T233 740Q254 740 274 732T312 713T348 693T382 685Q403 685 414 699T432 741H489Q484
678 455 643T380 607Q359 607 339 615T301 634T266 654T231 662Q209 662 198 648T180 606H123Z" />
<glyph unicode="&#xe4;" horiz-adv-x="600" d="M239 -10Q158 -10 111 31T64 150Q64 209 91 247T172 305T302 327L419 330V353Q419 415 386 439T293 463Q252 463 213 453T136 424L101 502Q141 522 189 535T298 549Q403 549 460 503T517 360V0H434L420 73H416Q393
44 367 26T308 -1T239 -10ZM265 75Q307 75 342 90T398 136T419 212V259L327 257Q270 255 235 243T183 209T166 156Q166 113 193 94T265 75ZM420 618Q396 618 379 634T361 682Q361 715 378 729T420 744Q445 744 462 730T480 682Q480 650 463 634T420 618ZM190 618Q165
618 148 634T131 682Q131 715 148 729T190 744Q214 744 232 730T250 682Q250 650 232 634T190 618Z" />
<glyph unicode="&#xe5;" horiz-adv-x="600" d="M239 -10Q158 -10 111 31T64 150Q64 209 91 247T172 305T302 327L419 330V353Q419 415 386 439T293 463Q252 463 213 453T136 424L101 502Q141 522 189 535T298 549Q403 549 460 503T517 360V0H434L420 73H416Q393
44 367 26T308 -1T239 -10ZM265 75Q307 75 342 90T398 136T419 212V259L327 257Q270 255 235 243T183 209T166 156Q166 113 193 94T265 75ZM305 606Q255 606 224 635T193 715Q193 766 224 794T305 823Q353 823 386 794T419 716Q419 664 387 635T305 606ZM305 663Q328
663 342 677T357 715Q357 739 342 752T305 766Q284 766 269 753T254 715Q254 691 268 677T305 663Z" />
<glyph unicode="&#xe6;" horiz-adv-x="600" d="M146 -10Q90 -10 54 30T17 152Q17 207 36 244T91 302T179 324L253 326V362Q253 417 234 440T176 463Q154 463 131 455T85 430L50 504Q77 524 114 536T184 549Q230 549 261 532T311 479Q330 513 361 531T432 549Q480
549 514 520T565 436T583 306V247H343Q344 185 358 147T399 91T459 74Q490 74 515 83T567 114V27Q541 8 514 -1T450 -10Q401 -10 360 13T295 92Q270 39 235 15T146 -10ZM167 74Q191 74 210 88T240 132T251 212V257L210 255Q159 252 135 227T111 154Q111 113 127
94T167 74ZM489 324Q489 370 482 401T461 447T422 463Q389 463 368 427T345 324H489Z" />
<glyph unicode="&#xe7;" horiz-adv-x="600" d="M338 -10Q256 -10 199 19T111 109T81 265Q81 365 113 428T206 520T346 549Q391 549 432 540T509 513L478 427Q444 444 413 451T351 458Q295 458 259 437T206 373T189 267Q189 201 207 160T261 100T350 81Q390 81
428 90T500 116V22Q466 6 424 -2T338 -10ZM285 -240Q268 -240 253 -238T228 -234V-173Q238 -176 252 -177T281 -179Q312 -179 330 -170T349 -137Q349 -112 327 -101T263 -84L303 5H366L344 -48Q380 -56 405 -77T430 -140Q430 -186 394 -213T285 -240Z" />
<glyph unicode="&#xe8;" horiz-adv-x="600" d="M341 -10Q252 -10 189 22T91 117T57 269Q57 356 88 418T177 515T312 549Q384 549 435 518T515 431T543 295V245H163Q165 184 189 147T254 94T348 77Q390 77 433 88T521 119V28Q476 8 430 -1T341 -10ZM441 325Q440
369 425 400T381 448T313 465Q252 465 213 428T165 325H441ZM567 606Q550 619 529 639T486 680T447 722T419 756V766H540Q551 744 568 717T603 663T637 618V606H567Z" />
<glyph unicode="&#xe9;" horiz-adv-x="600" d="M341 -10Q252 -10 189 22T91 117T57 269Q57 356 88 418T177 515T312 549Q384 549 435 518T515 431T543 295V245H163Q165 184 189 147T254 94T348 77Q390 77 433 88T521 119V28Q476 8 430 -1T341 -10ZM441 325Q440
369 425 400T381 448T313 465Q252 465 213 428T165 325H441ZM256 618Q272 638 289 664T324 717T352 766H474V756Q461 738 435 710T379 653T325 606H256V618Z" />
<glyph unicode="&#xea;" horiz-adv-x="600" d="M341 -10Q252 -10 189 22T91 117T57 269Q57 356 88 418T177 515T312 549Q384 549 435 518T515 431T543 295V245H163Q165 184 189 147T254 94T348 77Q390 77 433 88T521 119V28Q476 8 430 -1T341 -10ZM441 325Q440
369 425 400T381 448T313 465Q252 465 213 428T165 325H441ZM133 618Q151 637 174 663T218 717T252 766H359Q371 744 392 717T437 664T479 618V606H409Q385 622 358 647T304 699Q278 672 252 647T201 606H133V618Z" />
<glyph unicode="&#xeb;" horiz-adv-x="600" d="M341 -10Q252 -10 189 22T91 117T57 269Q57 356 88 418T177 515T312 549Q384 549 435 518T515 431T543 295V245H163Q165 184 189 147T254 94T348 77Q390 77 433 88T521 119V28Q476 8 430 -1T341 -10ZM441 325Q440
369 425 400T381 448T313 465Q252 465 213 428T165 325H441ZM420 618Q396 618 379 634T361 682Q361 715 378 729T420 744Q445 744 462 730T480 682Q480 650 463 634T420 618ZM190 618Q165 618 148 634T131 682Q131 715 148 729T190 744Q214 744 232 730T250 682Q250
650 232 634T190 618Z" />
<glyph unicode="&#xec;" horiz-adv-x="600" d="M74 0V69L262 88V451L93 465V539H369V88L543 69V0H74ZM561 606Q544 619 523 639T480 680T441 722T413 756V766H534Q545 744 562 717T597 663T631 618V606H561Z" />
<glyph unicode="&#xed;" horiz-adv-x="600" d="M74 0V69L262 88V451L93 465V539H369V88L543 69V0H74ZM251 618Q267 638 284 664T319 717T347 766H469V756Q456 738 430 710T374 653T320 606H251V618Z" />
<glyph unicode="&#xee;" horiz-adv-x="600" d="M74 0V69L262 88V451L93 465V539H369V88L543 69V0H74ZM383 618Q401 637 424 663T468 717T502 766H609Q621 744 642 717T687 664T729 618V606H659Q635 622 608 647T554 699Q528 672 502 647T451 606H383V618Z" />
<glyph unicode="&#xef;" horiz-adv-x="600" d="M74 0V69L262 88V451L93 465V539H369V88L543 69V0H74ZM670 618Q646 618 629 634T611 682Q611 715 628 729T670 744Q695 744 712 730T730 682Q730 650 713 634T670 618ZM440 618Q415 618 398 634T381 682Q381 715
398 729T440 744Q464 744 482 730T500 682Q500 650 482 634T440 618Z" />
<glyph unicode="&#xf0;" horiz-adv-x="600" d="M299 -10Q227 -10 171 19T83 103T51 234Q51 311 80 365T161 448T284 477Q336 477 374 464T434 421L438 423Q422 469 396 509T335 583T260 646T175 698L215 765Q293 729 354 679T460 565T526 429T549 276Q549 135
482 63T299 -10ZM301 72Q351 72 382 92T429 153T444 253Q444 292 429 324T382 375T301 395Q250 395 218 377T171 322T156 232Q156 185 171 149T218 93T301 72ZM197 526L156 587L454 761L495 702L197 526Z" />
<glyph unicode="&#xf1;" horiz-adv-x="600" d="M73 0V539H156L172 463H178Q194 492 219 511T277 539T350 549Q434 549 483 502T532 357V0H426V335Q426 401 400 431T317 462Q242 462 211 411T179 270V0H73ZM127 606Q130 636 138 660T160 703T193 730T237 740Q258
740 278 732T316 713T352 693T386 685Q407 685 418 699T436 741H493Q488 678 459 643T384 607Q363 607 343 615T305 634T270 654T235 662Q213 662 202 648T184 606H127Z" />
<glyph unicode="&#xf2;" horiz-adv-x="600" d="M301 -10Q246 -10 200 8T121 61T69 149T51 270Q51 362 82 423T170 517T299 549Q372 549 428 518T517 424T549 269Q549 201 531 149T481 62T403 8T301 -10ZM301 76Q348 76 379 99T426 167T442 270Q442 330 427 373T380
439T300 463Q228 463 193 412T157 270Q157 211 173 167T221 100T301 76ZM561 606Q544 619 523 639T480 680T441 722T413 756V766H534Q545 744 562 717T597 663T631 618V606H561Z" />
<glyph unicode="&#xf3;" horiz-adv-x="600" d="M301 -10Q246 -10 200 8T121 61T69 149T51 270Q51 362 82 423T170 517T299 549Q372 549 428 518T517 424T549 269Q549 201 531 149T481 62T403 8T301 -10ZM301 76Q348 76 379 99T426 167T442 270Q442 330 427 373T380
439T300 463Q228 463 193 412T157 270Q157 211 173 167T221 100T301 76ZM251 618Q267 638 284 664T319 717T347 766H469V756Q456 738 430 710T374 653T320 606H251V618Z" />
<glyph unicode="&#xf4;" horiz-adv-x="600" d="M301 -10Q246 -10 200 8T121 61T69 149T51 270Q51 362 82 423T170 517T299 549Q372 549 428 518T517 424T549 269Q549 201 531 149T481 62T403 8T301 -10ZM301 76Q348 76 379 99T426 167T442 270Q442 330 427 373T380
439T300 463Q228 463 193 412T157 270Q157 211 173 167T221 100T301 76ZM383 618Q401 637 424 663T468 717T502 766H609Q621 744 642 717T687 664T729 618V606H659Q635 622 608 647T554 699Q528 672 502 647T451 606H383V618Z" />
<glyph unicode="&#xf5;" horiz-adv-x="600" d="M301 -10Q246 -10 200 8T121 61T69 149T51 270Q51 362 82 423T170 517T299 549Q372 549 428 518T517 424T549 269Q549 201 531 149T481 62T403 8T301 -10ZM301 76Q348 76 379 99T426 167T442 270Q442 330 427 373T380
439T300 463Q228 463 193 412T157 270Q157 211 173 167T221 100T301 76ZM117 606Q120 636 128 660T150 703T183 730T227 740Q248 740 268 732T306 713T342 693T376 685Q397 685 408 699T426 741H483Q478 678 449 643T374 607Q353 607 333 615T295 634T260 654T225
662Q203 662 192 648T174 606H117Z" />
<glyph unicode="&#xf6;" horiz-adv-x="600" d="M301 -10Q246 -10 200 8T121 61T69 149T51 270Q51 362 82 423T170 517T299 549Q372 549 428 518T517 424T549 269Q549 201 531 149T481 62T403 8T301 -10ZM301 76Q348 76 379 99T426 167T442 270Q442 330 427 373T380
439T300 463Q228 463 193 412T157 270Q157 211 173 167T221 100T301 76ZM670 618Q646 618 629 634T611 682Q611 715 628 729T670 744Q695 744 712 730T730 682Q730 650 713 634T670 618ZM440 618Q415 618 398 634T381 682Q381 715 398 729T440 744Q464 744 482
730T500 682Q500 650 482 634T440 618Z" />
<glyph unicode="&#xf7;" horiz-adv-x="600" d="M77 312V393H523V312H77ZM300 114Q275 114 258 130T240 179Q240 215 257 229T300 244Q325 244 341 230T358 179Q358 146 341 130T300 114ZM300 461Q275 461 258 476T240 526Q240 561 257 575T300 590Q325 590 341
576T358 526Q358 492 341 477T300 461Z" />
<glyph unicode="&#xf8;" horiz-adv-x="600" d="M136 -34L74 8L468 569L532 527L136 -34ZM301 -10Q246 -10 200 8T121 61T69 149T51 270Q51 362 82 423T170 517T299 549Q372 549 428 518T517 424T549 269Q549 201 531 149T481 62T403 8T301 -10ZM301 76Q348 76
379 99T426 167T442 270Q442 330 427 373T380 439T300 463Q228 463 193 412T157 270Q157 211 173 167T221 100T301 76Z" />
<glyph unicode="&#xf9;" horiz-adv-x="600" d="M253 -10Q160 -10 114 38T68 182V539H174V203Q174 142 198 110T283 77Q337 77 367 100T409 166T421 269V539H527V0H444L428 71H422Q404 43 379 25T323 -1T253 -10ZM561 606Q544 619 523 639T480 680T441 722T413
756V766H534Q545 744 562 717T597 663T631 618V606H561Z" />
<glyph unicode="&#xfa;" horiz-adv-x="600" d="M253 -10Q160 -10 114 38T68 182V539H174V203Q174 142 198 110T283 77Q337 77 367 100T409 166T421 269V539H527V0H444L428 71H422Q404 43 379 25T323 -1T253 -10ZM251 618Q267 638 284 664T319 717T347 766H469V756Q456
738 430 710T374 653T320 606H251V618Z" />
<glyph unicode="&#xfb;" horiz-adv-x="600" d="M253 -10Q160 -10 114 38T68 182V539H174V203Q174 142 198 110T283 77Q337 77 367 100T409 166T421 269V539H527V0H444L428 71H422Q404 43 379 25T323 -1T253 -10ZM383 618Q401 637 424 663T468 717T502 766H609Q621
744 642 717T687 664T729 618V606H659Q635 622 608 647T554 699Q528 672 502 647T451 606H383V618Z" />
<glyph unicode="&#xfc;" horiz-adv-x="600" d="M253 -10Q160 -10 114 38T68 182V539H174V203Q174 142 198 110T283 77Q337 77 367 100T409 166T421 269V539H527V0H444L428 71H422Q404 43 379 25T323 -1T253 -10ZM670 618Q646 618 629 634T611 682Q611 715 628
729T670 744Q695 744 712 730T730 682Q730 650 713 634T670 618ZM440 618Q415 618 398 634T381 682Q381 715 398 729T440 744Q464 744 482 730T500 682Q500 650 482 634T440 618Z" />
<glyph unicode="&#xfd;" horiz-adv-x="600" d="M135 -245Q116 -245 97 -243T63 -237V-152Q75 -154 91 -156T121 -158Q152 -158 172 -148T208 -116T237 -62L260 -2L38 539H146L267 224Q279 196 289 163T308 96H311Q317 119 323 141T336 184T349 225L451 539H562L341
-58Q320 -116 295 -158T231 -222T135 -245ZM251 618Q267 638 284 664T319 717T347 766H469V756Q456 738 430 710T374 653T320 606H251V618Z" />
<glyph unicode="&#xfe;" horiz-adv-x="600" d="M73 -240V760H177V555Q177 533 176 511T173 467H177Q194 493 217 511T270 539T338 549Q388 549 427 531T494 476T535 388T549 270Q549 180 523 117T449 22T336 -10Q300 -10 270 0T217 27T177 66H171Q175 43 176 23T177
-13V-240H73ZM309 77Q378 77 409 125T440 272Q440 368 410 415T308 462Q242 462 210 418T177 290V271Q177 179 207 128T309 77Z" />
<glyph unicode="&#xff;" horiz-adv-x="600" d="M135 -245Q116 -245 97 -243T63 -237V-152Q75 -154 91 -156T121 -158Q152 -158 172 -148T208 -116T237 -62L260 -2L38 539H146L267 224Q279 196 289 163T308 96H311Q317 119 323 141T336 184T349 225L451 539H562L341
-58Q320 -116 295 -158T231 -222T135 -245ZM670 618Q646 618 629 634T611 682Q611 715 628 729T670 744Q695 744 712 730T730 682Q730 650 713 634T670 618ZM440 618Q415 618 398 634T381 682Q381 715 398 729T440 744Q464 744 482 730T500 682Q500 650 482 634T440
618Z" />
<glyph unicode="&#x2013;" horiz-adv-x="600" d="M100 223V316H500V223H100Z" />
<glyph unicode="&#x2014;" horiz-adv-x="600" d="M0 223V316H600V223H0Z" />
<glyph unicode="&#x2018;" horiz-adv-x="600" d="M218 480Q227 515 241 556T271 638T304 714H381Q372 676 362 632T344 546T331 469H225L218 480Z" />
<glyph unicode="&#x2019;" horiz-adv-x="600" d="M210 469Q218 501 225 533T238 597T249 658T259 714H372L379 703Q370 669 357 630T327 550T293 469H210Z" />
<glyph unicode="&#x201a;" horiz-adv-x="600" d="M206 -145Q217 -101 227 -52T246 45T260 131H376L384 119Q377 92 367 59T344 -9T318 -79T290 -145H206Z" />
<glyph unicode="&#x201c;" horiz-adv-x="600" d="M376 480Q385 515 399 556T429 638T462 714H539Q530 676 520 632T502 546T489 469H383L376 480ZM317 480Q326 515 340 556T370 638T403 714H480Q471 676 461 632T443 546T430 469H324L317 480Z" />
<glyph unicode="&#x201d;" horiz-adv-x="600" d="M479 703Q470 668 456 627T426 546T393 469H316Q326 508 335 551T353 637T366 714H472L479 703ZM282 703Q273 668 259 627T229 546T196 469H120Q130 508 139 551T156 637T169 714H276L282 703Z" />
<glyph unicode="&#x201e;" horiz-adv-x="600" d="M326 -145Q337 -101 347 -52T366 45T380 131H496L504 119Q497 92 487 59T464 -9T438 -79T410 -145H326ZM383 -145Q394 -101 404 -52T423 45T437 131H553L561 119Q554 92 544 59T521 -9T495 -79T467 -145H383Z" />
<glyph unicode="&#x2022;" horiz-adv-x="600" d="M300 233Q250 233 216 264T181 365Q181 437 215 467T300 497Q333 497 360 484T403 442T419 365Q419 318 403 289T360 246T300 233Z" />
<glyph unicode="&#x2039;" horiz-adv-x="600" d="M348 53L177 260V273L348 479L423 437L284 267L423 96L348 53Z" />
<glyph unicode="&#x203a;" horiz-adv-x="600" d="M251 506L422 299V286L251 80L176 122L315 292L176 463L251 506Z" />
</font>
</defs>
</svg>
