<?xml version="1.0" standalone="no"?>
<!DOCTYPE svg PUBLIC "-//W3C//DTD SVG 1.1//EN" "http://www.w3.org/Graphics/SVG/1.1/DTD/svg11.dtd">
<svg xmlns="http://www.w3.org/2000/svg">
<defs >
<font id="NotoSansMono" horiz-adv-x="645" ><font-face
    font-family="Noto Sans Mono Light"
    units-per-em="1000"
    panose-1="2 11 5 9 4 5 4 2 2 4"
    ascent="1069"
    descent="-293"
    alphabetic="0" />
<glyph unicode=" " horiz-adv-x="600" />
<glyph unicode="!" horiz-adv-x="600" d="M275 188L266 714H335L326 188H275ZM300 -11Q279 -11 267 2T255 41Q255 67 267 79T300 92Q323 92 334 80T346 41Q346 16 335 3T300 -11Z" />
<glyph unicode="&quot;" horiz-adv-x="600" d="M364 456L352 714H414L402 456H364ZM199 456L187 714H248L236 456H199Z" />
<glyph unicode="#" horiz-adv-x="600" d="M103 0L140 220H22V266H148L180 454H56V499H188L225 714H273L237 499H381L418 714H464L428 499H546V454H420L388 266H513V220H380L341 0H293L332 220H188L150 0H103ZM196 266H340L372 454H228L196 266Z" />
<glyph unicode="$" horiz-adv-x="600" d="M275 27Q218 28 173 37T95 58V115Q130 101 177 90T275 78V341Q219 361 177 383T112 439T89 526Q89 576 112 611T178 667T275 690V759H319V691Q364 690 404 681T483 654L464 605Q427 621 390 629T319 640V383Q379 363 422
341T488 286T511 199Q511 124 459 81T319 29V-58H275V27ZM319 81Q382 86 418 116T455 201Q455 234 440 256T395 294T319 325V81ZM275 639Q236 637 207 623T162 585T145 527Q145 491 161 467T206 427T275 398V639Z" />
<glyph unicode="%" horiz-adv-x="600" d="M89 0L452 714H505L142 0H89ZM460 -9Q394 -9 357 37T319 162Q319 238 355 284T461 330Q526 330 563 284T600 162Q600 84 564 38T460 -9ZM460 32Q505 32 527 66T550 162Q550 222 528 255T460 289Q414 289 392 256T369 162Q369
101 391 67T460 32ZM141 383Q75 383 38 429T0 554Q0 630 36 676T142 722Q207 722 244 676T281 554Q281 476 245 430T141 383ZM141 424Q186 424 208 458T231 554Q231 614 209 647T141 681Q95 681 73 648T50 554Q50 493 72 459T141 424Z" />
<glyph unicode="&amp;" horiz-adv-x="600" d="M243 -10Q187 -10 146 13T84 78T62 176Q62 235 84 276T143 348T219 406Q247 424 276 448T325 506T346 582Q346 627 324 652T263 678Q223 678 201 652T178 581Q178 551 188 521T215 462T252 407L572 0H503L216 373Q190
406 170 439T137 508T124 581Q124 646 161 685T263 725Q325 725 362 687T400 582Q400 529 378 491T321 423T253 369Q219 346 188 320T138 260T118 178Q118 117 152 79T248 41Q289 41 324 58T388 106T438 173T473 252T492 333H546Q538 280 521 230T477 136T415 60T337
9T243 -10Z" />
<glyph unicode="&apos;" horiz-adv-x="600" d="M281 456L269 714H331L319 456H281Z" />
<glyph unicode="(" horiz-adv-x="600" d="M357 -158Q285 -72 248 38T211 274Q211 402 248 515T357 714H414Q340 623 305 511T269 275Q269 155 304 45T413 -158H357Z" />
<glyph unicode=")" horiz-adv-x="600" d="M243 714Q315 628 352 518T389 282Q389 155 352 42T243 -158H187Q260 -66 295 46T331 281Q331 402 296 512T188 714H243Z" />
<glyph unicode="*" horiz-adv-x="600" d="M410 346L312 507L214 347L166 378L280 526L101 566L113 617L294 563L285 752H338L330 563L512 619L523 564L346 526L460 378L410 346Z" />
<glyph unicode="+" horiz-adv-x="600" d="M277 122V329H75V377H277V584H325V377H525V329H325V122H277Z" />
<glyph unicode="," horiz-adv-x="600" d="M230 -134Q243 -88 253 -44T271 43T285 123H352L358 111Q351 82 343 51T324 -12T302 -75T278 -134H230Z" />
<glyph unicode="-" horiz-adv-x="600" d="M150 248V300H450V248H150Z" />
<glyph unicode="." horiz-adv-x="600" d="M300 -11Q278 -11 266 2T254 41Q254 67 266 79T300 92Q323 92 334 80T346 41Q346 16 335 3T300 -11Z" />
<glyph unicode="/" horiz-adv-x="600" d="M136 0L407 714H464L193 0H136Z" />
<glyph unicode="0" horiz-adv-x="600" d="M300 -10Q224 -10 174 32T99 156T74 359Q74 471 96 553T168 680T301 725Q384 725 433 680T504 554T526 362Q526 271 513 202T473 86T403 14T300 -10ZM168 94L135 137L426 632L461 589L168 94ZM301 42Q390 42 431 120T472
361Q472 458 456 527T403 635T301 673Q238 673 201 636T146 528T129 359Q129 201 170 122T301 42Z" />
<glyph unicode="1" horiz-adv-x="600" d="M308 505Q308 533 308 560T309 612T311 654Q297 644 285 637T250 615L147 548L119 593L316 714H364V0H308V505ZM167 0V40L308 47H364L503 40V0H167Z" />
<glyph unicode="2" horiz-adv-x="600" d="M90 0V50L297 262Q345 311 376 353T423 439T439 532Q439 601 400 636T296 672Q251 672 208 655T126 607L94 648Q123 672 155 689T224 715T298 724Q359 724 403 702T472 637T497 533Q497 476 480 428T430 334T349 240L168
56V53H533V0H90Z" />
<glyph unicode="3" horiz-adv-x="600" d="M273 -10Q225 -10 176 0T86 31V87Q127 67 177 55T278 42Q372 42 418 85T465 199Q465 252 441 284T372 330T266 344H188V397H266Q318 397 357 414T420 464T443 546Q443 608 405 640T299 672Q249 672 205 655T122 610L92
651Q133 683 185 703T303 724Q366 724 410 703T478 643T502 551Q502 502 484 466T432 407T356 376V373Q411 366 448 344T504 286T524 197Q524 136 497 90T414 17T273 -10Z" />
<glyph unicode="4" horiz-adv-x="600" d="M380 0V178H55V224L369 718H436V228H545V178H436V0H380ZM116 228H380V470Q380 499 380 525T381 575T382 618T384 656H381Q369 633 356 610T328 563L116 228Z" />
<glyph unicode="5" horiz-adv-x="600" d="M267 -10Q219 -10 172 1T92 31V88Q127 67 172 55T264 42Q353 42 403 87T453 216Q453 269 432 306T371 363T272 383Q242 383 208 378T143 364L112 386L140 714H475V662H190L168 417Q185 422 219 427T287 432Q354 432 405
408T484 337T512 220Q512 149 484 98T401 18T267 -10Z" />
<glyph unicode="6" horiz-adv-x="600" d="M310 -10Q250 -10 206 13T133 80T90 183T75 318Q75 408 92 483T146 612T240 695T378 725Q399 725 424 723T468 714V661Q451 668 427 671T379 675Q318 675 272 654T196 590T149 486T132 343H136Q149 370 173 393T234 431T319
446Q415 446 471 388T527 228Q527 157 501 103T427 20T310 -10ZM310 40Q385 40 428 88T471 228Q471 308 432 353T312 398Q259 398 219 377T158 321T136 246Q136 225 141 198T159 143T191 92T240 55T310 40Z" />
<glyph unicode="7" horiz-adv-x="600" d="M194 0L465 662H94V714H525V670L256 0H194Z" />
<glyph unicode="8" horiz-adv-x="600" d="M287 -10Q222 -10 174 13T98 79T71 178Q71 230 92 267T149 332T233 378Q196 396 164 420T113 477T94 556Q94 610 120 647T192 704T294 724Q349 724 393 705T463 649T489 559Q489 493 450 452T344 380Q395 359 433 331T491
267T512 181Q512 123 484 80T404 14T287 -10ZM288 39Q365 39 410 77T455 184Q455 224 438 252T383 305T284 354Q239 336 204 313T149 257T129 178Q129 116 170 78T288 39ZM293 405Q336 423 367 443T415 490T432 557Q432 613 395 643T293 674Q229 674 190 644T151
555Q151 514 170 487T221 440T293 405Z" />
<glyph unicode="9" horiz-adv-x="600" d="M223 -10Q196 -10 170 -7T125 1V55Q143 48 168 45T221 41Q281 41 326 62T401 125T448 228T467 372H463Q450 345 425 322T364 284T279 270Q182 270 127 328T72 490Q72 561 98 613T173 695T291 725Q348 725 392 702T465
636T509 533T524 396Q524 325 513 263T480 151T422 65T337 10T223 -10ZM285 317Q338 317 378 338T441 395T464 468Q464 496 455 531T427 599T374 653T290 675Q214 675 171 627T128 489Q128 405 168 361T285 317Z" />
<glyph unicode=":" horiz-adv-x="600" d="M301 438Q279 438 267 451T255 490Q255 516 267 528T301 541Q323 541 334 529T345 490Q345 465 334 452T301 438ZM300 -11Q278 -11 266 2T254 41Q254 67 266 79T300 92Q323 92 334 80T345 41Q345 16 334 3T300 -11Z" />
<glyph unicode=";" horiz-adv-x="600" d="M225 -134Q238 -88 248 -44T266 43T280 123H347L353 111Q346 82 338 51T319 -12T297 -75T273 -134H225ZM317 440Q296 440 285 452T273 490Q273 515 284 527T317 539Q339 539 350 527T361 490Q361 465 350 453T317 440Z" />
<glyph unicode="&lt;" horiz-adv-x="600" d="M520 127L81 338V372L520 597V545L145 357L520 179V127Z" />
<glyph unicode="=" horiz-adv-x="600" d="M70 425V477H530V425H70ZM70 228V281H530V228H70Z" />
<glyph unicode="&gt;" horiz-adv-x="600" d="M81 127V179L455 357L81 545V597L520 372V338L81 127Z" />
<glyph unicode="?" horiz-adv-x="600" d="M234 203Q234 247 242 277T270 331T327 382Q362 407 385 429T421 480T433 550Q433 609 395 641T290 673Q246 673 209 663T132 634L111 684Q154 702 194 713T288 724Q349 724 394 704T464 646T489 552Q489 503 475 469T434
407T367 350Q335 327 317 307T293 261T286 199V188H234V203ZM263 -11Q242 -11 230 2T218 41Q218 67 230 79T263 92Q286 92 297 80T309 41Q309 16 298 3T263 -11Z" />
<glyph unicode="@" horiz-adv-x="600" d="M325 -89Q226 -89 157 -42T51 91T15 294Q15 391 36 468T96 600T192 684T319 714Q401 714 461 671T553 547T585 357Q585 308 579 265T558 186T522 131T469 111Q435 111 415 136T390 197H388Q374 158 346 135T278 111Q220
111 189 160T158 292Q158 358 178 408T235 488T325 517Q353 517 382 511T433 495L424 321Q423 308 423 290T422 257Q422 202 434 179T469 155Q494 155 509 182T531 254T538 356Q538 503 480 585T320 668Q241 668 183 623T94 495T63 295Q63 191 93 115T182 -2T325
-43Q372 -43 415 -32T496 -2V-49Q460 -67 418 -78T325 -89ZM286 155Q326 155 347 198T373 323L381 460Q368 466 353 469T323 473Q285 473 261 449T224 384T211 291Q211 224 230 190T286 155Z" />
<glyph unicode="A" horiz-adv-x="600" d="M20 0L270 717H330L580 0H520L332 552Q328 565 322 581T311 615T300 652Q295 634 290 616T279 581T269 552L80 0H20ZM146 245L166 298H434L451 245H146Z" />
<glyph unicode="B" horiz-adv-x="600" d="M105 0V714H284Q404 714 464 673T524 541Q524 475 489 432T389 378V375Q439 367 473 346T525 291T543 205Q543 136 513 91T428 23T302 0H105ZM292 52Q389 52 436 91T483 205Q483 256 462 287T398 334T289 349H161V52H292ZM291
400Q381 400 423 434T465 535Q465 604 422 633T277 663H161V400H291Z" />
<glyph unicode="C" horiz-adv-x="600" d="M365 -10Q263 -10 198 36T100 165T68 353Q68 439 88 507T148 623T245 698T376 724Q422 724 466 715T550 685L528 636Q491 655 451 663T376 672Q316 672 270 650T193 587T145 487T128 353Q128 260 153 191T232 83T368 44Q407
44 449 53T528 76V20Q492 6 452 -2T365 -10Z" />
<glyph unicode="D" horiz-adv-x="600" d="M83 0V714H240Q340 714 409 674T514 557T550 364Q550 245 513 164T403 42T226 0H83ZM216 52Q356 52 423 130T491 362Q491 463 462 529T375 629T230 663H141V52H216Z" />
<glyph unicode="E" horiz-adv-x="600" d="M105 0V714H513V662H163V401H493V349H163V53H513V0H105Z" />
<glyph unicode="F" horiz-adv-x="600" d="M105 0V714H513V662H163V368H494V316H163V0H105Z" />
<glyph unicode="G" horiz-adv-x="600" d="M332 -10Q240 -10 177 31T82 152T50 345Q50 463 84 548T184 679T345 725Q389 725 430 715T510 684L488 635Q455 655 418 663T345 672Q269 672 217 634T137 523T110 347Q110 251 134 183T209 79T335 43Q373 43 404 50T461
69V311H315V364H518V32Q479 13 431 2T332 -10Z" />
<glyph unicode="H" horiz-adv-x="600" d="M83 0V714H141V401H460V714H518V0H460V348H141V0H83Z" />
<glyph unicode="I" horiz-adv-x="600" d="M135 0V41L271 49V665L135 673V714H465V673L329 665V49L465 41V0H135Z" />
<glyph unicode="J" horiz-adv-x="600" d="M254 -12Q213 -12 176 -3T110 23V80Q136 66 172 54T250 41Q296 41 325 60T370 117T385 217V714H443V207Q443 138 423 89T362 14T254 -12Z" />
<glyph unicode="K" horiz-adv-x="600" d="M83 0V714H141V326Q156 348 170 367T203 409L468 714H538L274 404L545 0H479L235 365L141 265V0H83Z" />
<glyph unicode="L" horiz-adv-x="600" d="M133 0V714H191V54H513V0H133Z" />
<glyph unicode="M" horiz-adv-x="600" d="M55 0V714H138L298 265H301L461 714H545V0H490V485Q490 499 490 512T490 540T491 568T492 596T494 623T496 649H493L328 191H272L106 650H103Q104 637 105 624T107 597T109 569T110 541T110 514T111 487V0H55Z" />
<glyph unicode="N" horiz-adv-x="600" d="M83 0V714H156L464 86H466Q465 110 464 132T463 176T462 220T461 264V714H518V0H450L135 644H132Q133 622 134 600T137 556T138 512T139 464V0H83Z" />
<glyph unicode="O" horiz-adv-x="600" d="M300 -10Q234 -10 187 18T109 95T65 212T50 359Q50 471 78 553T162 680T302 725Q366 725 412 699T489 625T535 509T550 360Q550 280 536 212T491 95T414 18T300 -10ZM302 43Q368 43 409 81T471 189T491 358Q491 508 445
590T302 673Q236 673 193 635T130 526T109 358Q109 262 129 191T192 82T302 43Z" />
<glyph unicode="P" horiz-adv-x="600" d="M105 0V714H297Q422 714 482 664T543 511Q543 443 516 394T431 317T283 290H163V0H105ZM277 342Q342 342 388 357T458 409T483 508Q483 591 437 627T291 663H163V342H277Z" />
<glyph unicode="Q" horiz-adv-x="600" d="M454 -175L349 20L392 55L519 -175H454ZM300 -10Q234 -10 187 18T109 95T65 212T50 359Q50 471 78 553T162 680T302 725Q366 725 412 699T489 625T535 509T550 360Q550 280 536 212T491 95T414 18T300 -10ZM302 43Q368
43 409 81T471 189T491 358Q491 508 445 590T302 673Q236 673 193 635T130 526T109 358Q109 262 129 191T192 82T302 43Z" />
<glyph unicode="R" horiz-adv-x="600" d="M105 0V714H269Q351 714 407 694T492 631T522 517Q522 461 504 423T452 360T374 323L567 0H502L321 306H163V0H105ZM283 358Q340 358 380 374T441 426T462 514Q462 597 412 630T264 663H163V358H283Z" />
<glyph unicode="S" horiz-adv-x="600" d="M280 -10Q223 -10 172 0T88 24V79Q127 64 178 53T281 41Q337 41 379 57T445 105T468 186Q468 229 449 254T390 298T286 342Q235 361 193 383T125 442T100 537Q100 600 129 641T209 703T329 724Q378 724 424 715T510 686L490
637Q450 655 408 663T328 672Q282 672 244 659T182 616T159 537Q159 494 178 468T235 425T324 387Q383 365 429 342T501 283T527 186Q527 138 511 102T462 40T384 3T280 -10Z" />
<glyph unicode="T" horiz-adv-x="600" d="M271 0V662H48V714H553V662H329V0H271Z" />
<glyph unicode="U" horiz-adv-x="600" d="M297 -10Q222 -10 175 21T105 112T83 254V714H141V259Q141 191 156 142T206 68T299 43Q357 43 392 68T444 142T460 259V714H518V252Q518 171 495 112T423 22T297 -10Z" />
<glyph unicode="V" horiz-adv-x="600" d="M271 0L33 714H94L262 197Q270 171 277 147T290 102T301 61H303Q308 80 313 102T326 148T341 198L506 714H568L332 0H271Z" />
<glyph unicode="W" horiz-adv-x="600" d="M130 0L33 714H88Q95 660 102 605T117 495T131 385T146 276Q149 251 152 226T157 178T161 133T164 94T166 64H168Q171 80 174 98T182 138T192 181T202 228L272 532H329L399 229Q405 207 410 185T419 142T427 101T434 64H436Q438
78 439 96T442 135T446 179T450 228T455 279Q461 323 466 366T478 453T490 540T501 627T513 714H568L473 0H407L325 358Q319 385 315 405T308 441T302 473H300Q297 458 294 442T287 405T277 358L196 0H130Z" />
<glyph unicode="X" horiz-adv-x="600" d="M43 0L273 371L63 714H127L301 417L479 714H541L330 371L558 0H496L302 324L106 0H43Z" />
<glyph unicode="Y" horiz-adv-x="600" d="M273 0V275L43 714H107L302 324L495 714H558L329 275V0H273Z" />
<glyph unicode="Z" horiz-adv-x="600" d="M105 0V45L431 663H129V714H494V670L170 53H500V0H105Z" />
<glyph unicode="[" horiz-adv-x="600" d="M239 -158V714H452V666H295V-109H452V-158H239Z" />
<glyph unicode="\" horiz-adv-x="600" d="M464 0H407L136 714H193L464 0Z" />
<glyph unicode="]" horiz-adv-x="600" d="M362 714V-158H150V-109H307V666H150V714H362Z" />
<glyph unicode="^" horiz-adv-x="600" d="M56 273L281 719H317L545 273H491L299 656L109 273H56Z" />
<glyph unicode="_" horiz-adv-x="600" d="M0 -132V-79H600V-132H0Z" />
<glyph unicode="`" horiz-adv-x="600" d="M345 606Q327 622 306 641T265 682T228 722T200 758V766H268Q281 745 301 717T344 662T385 615V606H345Z" />
<glyph unicode="a" horiz-adv-x="600" d="M250 -10Q170 -10 125 28T80 138Q80 195 109 231T194 287T327 309L446 313V346Q446 428 409 460T300 493Q260 493 222 483T144 452L124 498Q163 518 207 530T303 542Q400 542 450 497T500 355V0H453L446 89H443Q425 59
398 37T334 3T250 -10ZM259 39Q315 39 357 60T423 122T446 217V269L339 265Q274 262 229 248T160 208T136 139Q136 90 168 65T259 39Z" />
<glyph unicode="b" horiz-adv-x="600" d="M319 -10Q253 -10 212 18T150 86H146L140 0H93V760H149V551Q149 524 149 493T146 432H149Q168 478 213 510T327 542Q376 542 415 524T482 472T523 387T538 271Q538 207 524 155T483 66T414 10T319 -10ZM311 39Q395 39
436 98T478 271Q478 376 439 434T317 493Q235 493 192 434T149 264Q149 154 188 97T311 39Z" />
<glyph unicode="c" horiz-adv-x="600" d="M345 -10Q260 -10 203 22T117 114T88 260Q88 354 121 416T216 510T359 542Q400 542 436 534T503 511L487 462Q456 477 424 483T360 490Q291 490 244 463T172 386T147 262Q147 194 168 144T235 68T350 41Q391 41 430 49T498
71V18Q470 6 429 -2T345 -10Z" />
<glyph unicode="d" horiz-adv-x="600" d="M278 -10Q227 -10 187 7T119 59T77 145T63 263Q63 353 88 415T164 510T287 542Q332 542 364 528T417 491T450 439H454Q453 455 452 473T451 509T450 545V760H508V0H460L454 93H451Q437 63 414 40T358 4T278 -10ZM287 39Q373
39 411 96T450 255V267Q450 336 434 387T383 465T292 493Q211 493 167 435T122 258Q122 149 163 94T287 39Z" />
<glyph unicode="e" horiz-adv-x="600" d="M337 -10Q247 -10 187 23T98 117T68 260Q68 343 97 406T181 506T316 542Q388 542 436 510T508 422T533 292V259H127Q128 184 152 136T223 64T340 40Q387 40 429 50T513 80V26Q470 8 425 -1T337 -10ZM474 307Q473 364 456
405T403 470T316 493Q239 493 189 445T128 307H474Z" />
<glyph unicode="f" horiz-adv-x="600" d="M257 0V482H80V524L257 532V600Q257 658 278 694T341 748T441 765Q476 765 510 760T565 749L553 702Q533 708 503 712T443 716Q380 716 348 689T315 589V532H531V482H315V0H257Z" />
<glyph unicode="g" horiz-adv-x="600" d="M275 -246Q220 -246 175 -235T91 -208V-153Q128 -173 177 -185T275 -197Q373 -197 413 -150T453 -23V11Q453 32 453 49T455 93H452Q429 40 386 15T280 -10Q177 -10 120 60T63 261Q63 392 120 467T283 542Q347 542 385
518T449 451H452L461 532H508V-26Q508 -95 484 -144T409 -220T275 -246ZM290 39Q334 39 365 54T416 98T445 164T454 246V281Q454 348 438 395T385 468T293 493Q205 493 164 433T122 263Q122 154 163 97T290 39Z" />
<glyph unicode="h" horiz-adv-x="600" d="M93 0V760H151V520Q151 499 150 475T148 431H151Q165 464 189 489T249 528T330 542Q413 542 463 496T513 350V0H455V339Q455 419 419 456T318 493Q268 493 230 470T172 402T151 290V0H93Z" />
<glyph unicode="i" horiz-adv-x="600" d="M90 0V41L289 50V482L107 491V532H347V50L535 41V0H90ZM312 647Q290 647 278 660T265 697Q265 720 277 733T312 747Q334 747 346 734T359 697Q359 675 347 661T312 647Z" />
<glyph unicode="j" horiz-adv-x="600" d="M197 -246Q163 -246 126 -240T70 -228V-175Q84 -180 105 -184T149 -192T192 -196Q236 -196 264 -180T305 -134T319 -59V482L137 491V532H377V-70Q377 -157 329 -201T197 -246ZM341 647Q319 647 307 660T294 697Q294 720
306 733T341 747Q363 747 375 734T388 697Q388 674 376 661T341 647Z" />
<glyph unicode="k" horiz-adv-x="600" d="M123 0V760H181V390Q181 363 181 335T179 279T177 222H179Q196 243 213 261T249 300L470 532H541L331 310L558 0H490L292 275L181 168V0H123Z" />
<glyph unicode="l" horiz-adv-x="600" d="M90 0V41L289 50V710L104 719V760H347V50L535 41V0H90Z" />
<glyph unicode="m" horiz-adv-x="600" d="M60 0V532H101L109 454H112Q123 479 136 499T169 530T218 542Q264 542 286 516T318 450H321Q337 491 362 516T434 542Q471 542 495 523T531 465T543 366V0H490V354Q490 401 483 431T461 475T421 490Q393 490 373 468T341
405T329 305V0H276V345Q276 398 268 429T244 475T204 490Q171 490 151 464T122 394T113 298V0H60Z" />
<glyph unicode="n" horiz-adv-x="600" d="M93 0V532H140L148 437H151Q165 468 189 491T249 528T333 542Q415 542 464 497T513 356V0H455V344Q455 422 421 457T319 493Q236 493 194 442T151 289V0H93Z" />
<glyph unicode="o" horiz-adv-x="600" d="M301 -10Q246 -10 202 9T126 64T79 151T63 267Q63 356 92 417T176 510T302 542Q377 542 429 509T510 414T538 267Q538 203 522 152T475 64T401 9T301 -10ZM300 39Q361 39 400 67T459 147T479 267Q479 334 461 384T403
464T302 493Q214 493 168 433T121 266Q121 198 140 147T200 68T300 39Z" />
<glyph unicode="p" horiz-adv-x="600" d="M93 -240V532H141L147 431H150Q164 462 187 487T246 527T329 542Q378 542 417 525T483 473T524 388T538 270Q538 180 512 117T438 22T323 -10Q278 -10 244 4T187 42T150 94H146Q149 68 149 41T150 -13V-240H93ZM314 39Q396
39 437 96T478 272Q478 384 440 438T319 493Q235 493 193 437T150 277V266Q150 155 190 97T314 39Z" />
<glyph unicode="q" horiz-adv-x="600" d="M450 -4Q450 11 450 29T452 65T453 98H450Q429 52 387 21T276 -10Q226 -10 187 7T120 59T78 144T63 261Q63 326 77 377T119 466T188 522T281 542Q348 542 389 513T449 443H452L461 532H508V-240H450V-4ZM284 39Q367 39
408 95T450 256V271Q450 378 412 435T287 493Q204 493 163 433T122 261Q122 156 161 98T284 39Z" />
<glyph unicode="r" horiz-adv-x="600" d="M81 0V41L250 50V482L98 491V532H299L305 423H308Q329 476 368 508T468 541Q498 541 524 536T570 524L555 471Q537 479 515 484T468 489Q418 489 382 461T327 384T308 271V50L486 41V0H81Z" />
<glyph unicode="s" horiz-adv-x="600" d="M285 -10Q235 -10 190 0T113 25V81Q150 63 193 52T287 40Q365 40 397 66T429 137Q429 169 414 188T368 221T290 252Q243 270 206 287T148 331T126 404Q126 450 148 480T214 526T318 542Q362 542 401 534T477 510L458 463Q424
478 389 485T318 492Q250 492 217 471T183 405Q183 375 198 357T244 326T319 296Q371 277 409 259T467 214T488 140Q488 92 466 59T398 8T285 -10Z" />
<glyph unicode="t" horiz-adv-x="600" d="M407 -10Q348 -10 309 9T249 68T229 172V482H70V524L228 534L240 669H287V532H500V482H287V182Q287 135 298 103T337 55T410 39Q435 39 459 43T503 53V5Q483 -1 460 -5T407 -10Z" />
<glyph unicode="u" horiz-adv-x="600" d="M271 -10Q179 -10 134 40T88 187V532H146V196Q146 116 179 78T283 39Q338 39 375 62T431 131T450 243V532H508V0H461L453 92H449Q434 62 410 39T352 3T271 -10Z" />
<glyph unicode="v" horiz-adv-x="600" d="M266 0L65 532H125L255 178Q267 147 277 118T299 55H301Q312 88 323 117T345 178L474 532H535L332 0H266Z" />
<glyph unicode="w" horiz-adv-x="600" d="M130 0L21 532H75L142 212Q148 179 151 155T158 108T163 56H166Q170 73 174 95T186 146T202 203L272 434H334L403 203Q412 174 419 147T431 97T440 56H443Q446 84 448 106T453 153T463 212L527 532H580L476 0H411L340
240Q331 273 321 307T304 375H301Q294 341 284 307T265 240L194 0H130Z" />
<glyph unicode="x" horiz-adv-x="600" d="M65 0L266 272L76 532H142L299 312L459 532H524L333 273L535 0H469L300 233L131 0H65Z" />
<glyph unicode="y" horiz-adv-x="600" d="M137 -246Q121 -246 105 -244T75 -237V-189Q88 -193 102 -195T132 -198Q160 -198 179 -187T214 -153T244 -92L279 1L68 532H126L258 192Q273 155 284 124T305 59H308Q315 82 322 103T337 146T354 195L475 532H535L299
-94Q282 -142 262 -176T212 -228T137 -246Z" />
<glyph unicode="z" horiz-adv-x="600" d="M103 0V39L426 485H124V532H494V489L174 51H496V0H103Z" />
<glyph unicode="{" horiz-adv-x="600" d="M450 -158Q390 -157 350 -142T289 -94T269 -12V150Q269 206 241 230T153 254V303Q213 304 241 327T269 408V569Q269 619 289 651T350 698T450 714V666Q407 665 380 655T339 622T326 564V404Q326 353 304 322T232 282V278Q282
268 304 237T326 155V-8Q326 -62 355 -85T450 -109V-158Z" />
<glyph unicode="|" horiz-adv-x="600" d="M276 -240V760H325V-240H276Z" />
<glyph unicode="}" horiz-adv-x="600" d="M150 714Q211 714 251 699T311 651T331 569V407Q331 350 359 326T447 302V253Q388 253 360 229T331 148V-13Q331 -62 311 -94T250 -142T150 -158V-109Q194 -109 221 -99T261 -66T274 -7V153Q274 203 296 234T368 275V279Q319
288 297 320T274 402V564Q274 619 245 642T150 666V714Z" />
<glyph unicode="~" horiz-adv-x="600" d="M79 297Q82 324 87 353T105 407T139 448T193 464Q219 464 240 455T280 429T319 392Q337 374 358 357T405 340Q438 340 454 374T475 464H519Q517 439 511 410T493 356T459 314T405 297Q381 297 360 306T322 329T290 359Q268
384 245 403T194 422Q160 422 144 389T123 297H79Z" />
<glyph unicode="&#xa0;" horiz-adv-x="600" />
<glyph unicode="&#xa1;" horiz-adv-x="600" d="M325 341L334 -185H265L274 341H325ZM301 540Q322 540 334 527T346 489Q346 464 334 451T301 437Q278 437 267 450T255 489Q255 514 266 527T301 540Z" />
<glyph unicode="&#xa2;" horiz-adv-x="600" d="M309 90Q239 97 191 130T118 221T93 362Q93 443 119 502T194 595T309 638V724H356V641Q396 640 431 634T494 615L479 566Q451 578 419 584T353 591Q288 591 243 564T175 485T151 362Q151 294 172 244T235 167T342
140Q384 140 421 147T488 168V117Q463 105 430 98T355 89V-10H309V90Z" />
<glyph unicode="&#xa3;" horiz-adv-x="600" d="M91 49Q125 56 149 74T186 123T199 201V328H101V373H199V525Q199 623 246 673T378 723Q423 723 458 713T524 683L504 637Q473 656 444 664T382 673Q318 673 287 637T256 519V373H434V328H256V197Q256 163 247 135T221
85T185 53H532V0H91V49Z" />
<glyph unicode="&#xa4;" horiz-adv-x="600" d="M423 199Q397 179 366 168T301 157Q267 157 236 168T178 200L106 129L72 162L144 234Q123 260 112 292T101 357Q101 391 111 422T142 479L70 553L104 586L177 514Q203 536 235 547T301 558Q335 558 366 547T424 514L497
585L530 552L459 480Q479 454 490 423T501 357Q501 323 490 292T458 233L529 161L495 128L423 199ZM300 204Q343 204 378 224T433 279T454 358Q454 403 434 437T380 492T302 512Q258 512 223 492T168 437T147 357Q147 312 168 278T224 224T300 204Z" />
<glyph unicode="&#xa5;" horiz-adv-x="600" d="M272 0V146H112V190H272V287H112V331H253L38 714H100L300 351L501 714H563L345 331H489V287H328V190H489V146H328V0H272Z" />
<glyph unicode="&#xa6;" horiz-adv-x="600" d="M275 387V762H324V387H275ZM275 -246V129H324V-246H275Z" />
<glyph unicode="&#xa7;" horiz-adv-x="600" d="M285 -5Q231 -5 189 4T117 28V79Q141 68 168 59T225 45T286 39Q365 39 398 65T432 130Q432 158 417 176T371 210T292 242Q244 259 208 277T151 322T130 395Q130 444 157 475T224 521Q184 539 159 565T134 636Q134
695 182 728T318 762Q369 762 407 754T479 731L461 688Q431 702 396 710T317 718Q252 718 220 697T188 637Q188 611 203 594T249 564T324 534Q371 518 408 500T468 454T490 382Q490 333 465 300T405 248Q442 230 464 203T486 133Q486 69 435 32T285 -5ZM361 268Q394
283 417 310T440 376Q440 407 423 428T370 467T274 501Q235 491 207 466T178 400Q178 369 194 349T243 313T321 281L361 268Z" />
<glyph unicode="&#xa8;" horiz-adv-x="600" d="M407 633Q388 633 377 645T366 680Q366 702 377 714T407 726Q426 726 436 714T447 680Q447 658 437 646T407 633ZM194 633Q175 633 165 645T154 680Q154 703 164 714T194 726Q214 726 224 714T235 680Q235 658 225
646T194 633Z" />
<glyph unicode="&#xa9;" horiz-adv-x="600" d="M298 102Q222 102 164 134T74 225T42 358Q42 436 75 494T168 584T302 617Q379 617 436 584T526 493T558 360Q558 283 525 225T433 135T298 102ZM314 202Q243 202 205 243T167 356Q167 429 206 473T317 517Q340 517
362 513T403 498L388 464Q372 473 354 477T317 481Q265 481 237 449T208 356Q208 298 236 268T316 237Q333 237 352 240T391 252V217Q374 210 355 206T314 202ZM299 137Q364 137 414 164T492 242T521 358Q521 424 493 474T415 553T300 581Q236 581 187 554T109
477T80 360Q80 295 107 245T184 166T299 137Z" />
<glyph unicode="&#xaa;" horiz-adv-x="600" d="M268 388Q221 388 192 411T163 482Q163 516 180 538T231 573T317 586L383 588V615Q383 652 360 668T297 685Q271 685 247 678T199 659L183 695Q208 707 237 714T301 722Q362 722 394 696T426 616V393H392L384 439Q367
418 338 403T268 388ZM280 425Q331 425 357 451T383 522V555L321 553Q259 551 234 534T208 484Q208 453 227 439T280 425Z" />
<glyph unicode="&#xab;" horiz-adv-x="600" d="M448 67L287 262V275L448 472L485 445L348 269L485 93L448 67ZM265 68L105 262V275L265 472L303 444L166 269L302 93L265 68Z" />
<glyph unicode="&#xac;" horiz-adv-x="600" d="M459 130V329H65V377H507V130H459Z" />
<glyph unicode="&#xad;" horiz-adv-x="600" d="M150 248V300H450V248H150Z" />
<glyph unicode="&#xae;" horiz-adv-x="600" d="M298 102Q222 102 164 134T74 225T42 358Q42 436 75 494T168 584T302 617Q379 617 436 584T526 493T558 360Q558 283 525 225T433 135T298 102ZM299 137Q364 137 414 164T492 242T521 358Q521 424 493 474T415 553T300
581Q236 581 187 554T109 477T80 360Q80 295 107 245T184 166T299 137ZM210 199V525H302Q355 525 384 502T414 432Q414 392 395 370T349 339L435 199H391L313 331H246V199H210ZM300 363Q334 363 355 379T376 429Q376 462 356 476T300 491H246V363H300Z" />
<glyph unicode="&#xaf;" horiz-adv-x="600" d="M162 626V674H438V626H162Z" />
<glyph unicode="&#xb0;" horiz-adv-x="600" d="M301 431Q260 431 227 449T174 501T154 577Q154 621 173 654T226 705T301 724Q341 724 374 705T426 653T446 577Q446 534 427 501T376 450T301 431ZM301 472Q344 472 374 500T404 577Q404 625 374 654T300 683Q257
683 227 655T197 578Q197 531 227 502T301 472Z" />
<glyph unicode="&#xb1;" horiz-adv-x="600" d="M275 124V331H73V378H275V586H323V378H525V331H323V124H275ZM75 0V48H525V0H75Z" />
<glyph unicode="&#xb2;" horiz-adv-x="600" d="M156 416V454L275 573Q314 611 338 638T374 687T385 736Q385 772 363 792T300 813Q269 813 244 802T191 771L167 804Q195 828 228 841T300 854Q363 854 398 823T433 738Q433 704 419 676T377 619T310 551L218 460H446V416H156Z"
/>
<glyph unicode="&#xb3;" horiz-adv-x="600" d="M279 410Q246 410 215 417T156 437V482Q188 468 218 460T281 451Q336 451 363 475T391 539Q391 581 363 600T278 620H216V659H278Q328 659 353 681T379 740Q379 776 357 793T296 811Q266 811 239 801T184 773L161
807Q191 828 223 840T297 852Q360 852 394 823T428 744Q428 704 408 678T357 643V640Q397 632 418 606T440 538Q440 480 400 445T279 410Z" />
<glyph unicode="&#xb4;" horiz-adv-x="600" d="M260 615Q279 635 301 662T344 717T377 766H445V758Q431 738 406 710T353 654T300 606H260V615Z" />
<glyph unicode="&#xb5;" horiz-adv-x="600" d="M88 -240V227H146V-240H88ZM271 -10Q179 -10 134 40T88 187V532H146V196Q146 116 179 78T283 39Q338 39 375 62T431 131T450 243V532H508V0H461L453 92H449Q434 62 410 39T352 3T271 -10Z" />
<glyph unicode="&#xb6;" horiz-adv-x="600" d="M301 314Q285 310 267 308T230 305Q177 305 140 330T84 407T64 533Q64 613 85 663T148 736T247 760H511V-127H470V719H342V-127H301V314Z" />
<glyph unicode="&#xb7;" horiz-adv-x="600" d="M300 271Q278 271 266 284T254 323Q254 349 266 361T300 374Q323 374 334 362T346 323Q346 298 335 285T300 271Z" />
<glyph unicode="&#xb8;" horiz-adv-x="600" d="M268 -240Q254 -240 241 -239T217 -234V-195Q228 -198 242 -199T268 -200Q309 -200 331 -187T353 -144Q353 -115 329 -102T256 -85L299 3H341L312 -59Q351 -64 376 -84T401 -143Q401 -188 367 -214T268 -240Z" />
<glyph unicode="&#xb9;" horiz-adv-x="600" d="M290 694Q290 722 290 747T292 796Q278 786 265 778T233 760L180 731L158 770L292 844H336V416H290V694ZM185 416V451L292 457H332L440 451V416H185Z" />
<glyph unicode="&#xba;" horiz-adv-x="600" d="M299 389Q234 389 198 434T162 556Q162 635 199 679T302 723Q346 723 376 703T423 645T439 556Q439 479 403 434T299 389ZM300 427Q348 427 370 462T393 556Q393 595 384 624T354 669T301 685Q255 685 231 651T207
556Q207 497 229 462T300 427Z" />
<glyph unicode="&#xbb;" horiz-adv-x="600" d="M155 462L316 267V254L155 58L118 85L255 260L118 436L155 462ZM338 462L498 267V254L338 58L300 86L437 260L301 436L338 462Z" />
<glyph unicode="&#xbc;" horiz-adv-x="600" d="M90 0L460 714H513L143 0H90ZM36 367V402L121 408H161L248 402V367H36ZM470 0V87H306V122L467 349H515V127H571V87H515V0H470ZM357 127H470V223Q470 245 470 261T472 296Q465 283 458 272T441 247L357 127ZM119 564Q119
592 119 617T121 666Q107 656 94 648T62 630L35 615L12 654L121 714H165V367H119V564Z" />
<glyph unicode="&#xbd;" horiz-adv-x="600" d="M90 0L460 714H513L143 0H90ZM36 367V402L121 408H161L248 402V367H36ZM340 0V38L433 130Q463 160 481 180T509 217T518 256Q518 282 502 298T455 314Q431 314 412 305T372 280L348 313Q371 333 397 344T455 355Q508
355 537 329T566 258Q566 231 555 209T522 163T468 108L402 44H574V0H340ZM119 564Q119 592 119 617T121 666Q107 656 94 648T62 630L35 615L12 654L121 714H165V367H119V564Z" />
<glyph unicode="&#xbe;" horiz-adv-x="600" d="M90 0L460 714H513L143 0H90ZM470 0V87H306V122L467 349H515V127H571V87H515V0H470ZM357 127H470V223Q470 245 470 261T472 296Q465 283 458 272T441 247L357 127ZM122 361Q96 361 72 366T26 381V427Q51 415 75 409T124
402Q165 402 186 420T207 470Q207 501 184 515T116 529H71V568H116Q157 568 178 584T199 628Q199 655 182 668T135 682Q112 682 91 674T49 653L26 687Q50 703 76 713T137 723Q190 723 219 699T248 632Q248 600 232 580T191 553V551Q256 534 256 469Q256 420 223
391T122 361Z" />
<glyph unicode="&#xbf;" horiz-adv-x="600" d="M342 326Q342 283 334 253T306 199T249 148Q214 123 191 100T155 49T143 -20Q143 -79 181 -111T286 -143Q331 -143 368 -133T444 -104L465 -155Q424 -173 384 -184T289 -195Q227 -195 182 -175T112 -116T87 -22Q87
26 101 61T143 124T209 179Q242 203 259 223T284 269T291 331V341H342V326ZM314 540Q335 540 347 527T359 489Q359 464 347 451T314 437Q291 437 280 450T268 489Q268 514 279 527T314 540Z" />
<glyph unicode="&#xc0;" horiz-adv-x="600" d="M20 0L270 717H330L580 0H520L332 552Q328 565 322 581T311 615T300 652Q295 634 290 616T279 581T269 552L80 0H20ZM146 245L166 298H434L451 245H146ZM322 788Q304 804 283 823T242 864T205 904T177 940V948H245Q258
927 278 899T321 844T362 797V788H322Z" />
<glyph unicode="&#xc1;" horiz-adv-x="600" d="M20 0L270 717H330L580 0H520L332 552Q328 565 322 581T311 615T300 652Q295 634 290 616T279 581T269 552L80 0H20ZM146 245L166 298H434L451 245H146ZM257 797Q276 817 298 844T341 899T374 948H442V940Q428 920
403 892T350 836T297 788H257V797Z" />
<glyph unicode="&#xc2;" horiz-adv-x="600" d="M20 0L270 717H330L580 0H520L332 552Q328 565 322 581T311 615T300 652Q295 634 290 616T279 581T269 552L80 0H20ZM146 245L166 298H434L451 245H146ZM153 797Q172 817 195 844T239 898T273 947H329Q341 926 362
899T406 844T448 797V788H407Q380 810 352 841T300 899Q276 872 249 842T194 788H153V797Z" />
<glyph unicode="&#xc3;" horiz-adv-x="600" d="M20 0L270 717H330L580 0H520L332 552Q328 565 322 581T311 615T300 652Q295 634 290 616T279 581T269 552L80 0H20ZM146 245L166 298H434L451 245H146ZM129 794Q132 822 139 843T160 878T190 899T229 907Q252 907
271 897T306 874T339 851T374 841Q397 841 413 855T434 908H472Q467 854 441 824T372 794Q349 794 330 804T295 827T262 850T226 860Q204 860 189 846T167 794H129Z" />
<glyph unicode="&#xc4;" horiz-adv-x="600" d="M20 0L270 717H330L580 0H520L332 552Q328 565 322 581T311 615T300 652Q295 634 290 616T279 581T269 552L80 0H20ZM146 245L166 298H434L451 245H146ZM407 815Q388 815 377 827T366 862Q366 884 377 896T407 908Q426
908 436 896T447 862Q447 840 437 828T407 815ZM194 815Q175 815 165 827T154 862Q154 885 164 896T194 908Q214 908 224 896T235 862Q235 840 225 828T194 815Z" />
<glyph unicode="&#xc5;" horiz-adv-x="600" d="M20 0L270 717H330L580 0H520L332 552Q328 565 322 581T311 615T300 652Q295 634 290 616T279 581T269 552L80 0H20ZM146 245L166 298H434L451 245H146ZM299 791Q255 791 225 817T195 893Q195 941 224 968T299 996Q344
996 374 968T405 894Q405 846 375 819T299 791ZM299 828Q329 828 347 846T365 894Q365 923 347 941T300 960Q271 960 253 942T235 893Q235 864 253 846T299 828Z" />
<glyph unicode="&#xc6;" horiz-adv-x="600" d="M20 0L227 714H564V662H353V401H547V349H353V53H564V0H297V662H266L78 0H20ZM131 247L143 298H318L314 247H131Z" />
<glyph unicode="&#xc7;" horiz-adv-x="600" d="M365 -10Q263 -10 198 36T100 165T68 353Q68 439 88 507T148 623T245 698T376 724Q422 724 466 715T550 685L528 636Q491 655 451 663T376 672Q316 672 270 650T193 587T145 487T128 353Q128 260 153 191T232 83T368
44Q407 44 449 53T528 76V20Q492 6 452 -2T365 -10ZM300 -240Q286 -240 273 -239T249 -234V-195Q260 -198 274 -199T300 -200Q341 -200 363 -187T385 -144Q385 -115 361 -102T288 -85L331 3H373L344 -59Q383 -64 408 -84T433 -143Q433 -188 399 -214T300 -240Z"
/>
<glyph unicode="&#xc8;" horiz-adv-x="600" d="M105 0V714H513V662H163V401H493V349H163V53H513V0H105ZM330 788Q312 804 291 823T250 864T213 904T185 940V948H253Q266 927 286 899T329 844T370 797V788H330Z" />
<glyph unicode="&#xc9;" horiz-adv-x="600" d="M105 0V714H513V662H163V401H493V349H163V53H513V0H105ZM265 797Q284 817 306 844T349 899T382 948H450V940Q436 920 411 892T358 836T305 788H265V797Z" />
<glyph unicode="&#xca;" horiz-adv-x="600" d="M105 0V714H513V662H163V401H493V349H163V53H513V0H105ZM161 797Q180 817 203 844T247 898T281 947H337Q349 926 370 899T414 844T456 797V788H415Q388 810 360 841T308 899Q284 872 257 842T202 788H161V797Z" />
<glyph unicode="&#xcb;" horiz-adv-x="600" d="M105 0V714H513V662H163V401H493V349H163V53H513V0H105ZM415 815Q396 815 385 827T374 862Q374 884 385 896T415 908Q434 908 444 896T455 862Q455 840 445 828T415 815ZM202 815Q183 815 173 827T162 862Q162 885
172 896T202 908Q222 908 232 896T243 862Q243 840 233 828T202 815Z" />
<glyph unicode="&#xcc;" horiz-adv-x="600" d="M135 0V41L271 49V665L135 673V714H465V673L329 665V49L465 41V0H135ZM322 788Q304 804 283 823T242 864T205 904T177 940V948H245Q258 927 278 899T321 844T362 797V788H322Z" />
<glyph unicode="&#xcd;" horiz-adv-x="600" d="M135 0V41L271 49V665L135 673V714H465V673L329 665V49L465 41V0H135ZM257 797Q276 817 298 844T341 899T374 948H442V940Q428 920 403 892T350 836T297 788H257V797Z" />
<glyph unicode="&#xce;" horiz-adv-x="600" d="M135 0V41L271 49V665L135 673V714H465V673L329 665V49L465 41V0H135ZM153 797Q172 817 195 844T239 898T273 947H329Q341 926 362 899T406 844T448 797V788H407Q380 810 352 841T300 899Q276 872 249 842T194 788H153V797Z" />
<glyph unicode="&#xcf;" horiz-adv-x="600" d="M135 0V41L271 49V665L135 673V714H465V673L329 665V49L465 41V0H135ZM407 815Q388 815 377 827T366 862Q366 884 377 896T407 908Q426 908 436 896T447 862Q447 840 437 828T407 815ZM194 815Q175 815 165 827T154
862Q154 885 164 896T194 908Q214 908 224 896T235 862Q235 840 225 828T194 815Z" />
<glyph unicode="&#xd0;" horiz-adv-x="600" d="M0 334V385H284V334H0ZM93 0V714H250Q350 714 419 674T524 557T560 364Q560 245 523 164T413 42T236 0H93ZM226 52Q366 52 433 130T501 362Q501 463 472 529T385 629T240 663H151V52H226Z" />
<glyph unicode="&#xd1;" horiz-adv-x="600" d="M83 0V714H156L464 86H466Q465 110 464 132T463 176T462 220T461 264V714H518V0H450L135 644H132Q133 622 134 600T137 556T138 512T139 464V0H83ZM134 794Q137 822 144 843T165 878T195 899T234 907Q257 907 276
897T311 874T344 851T379 841Q402 841 418 855T439 908H477Q472 854 446 824T377 794Q354 794 335 804T300 827T267 850T231 860Q209 860 194 846T172 794H134Z" />
<glyph unicode="&#xd2;" horiz-adv-x="600" d="M300 -10Q234 -10 187 18T109 95T65 212T50 359Q50 471 78 553T162 680T302 725Q366 725 412 699T489 625T535 509T550 360Q550 280 536 212T491 95T414 18T300 -10ZM302 43Q368 43 409 81T471 189T491 358Q491 508
445 590T302 673Q236 673 193 635T130 526T109 358Q109 262 129 191T192 82T302 43ZM322 788Q304 804 283 823T242 864T205 904T177 940V948H245Q258 927 278 899T321 844T362 797V788H322Z" />
<glyph unicode="&#xd3;" horiz-adv-x="600" d="M300 -10Q234 -10 187 18T109 95T65 212T50 359Q50 471 78 553T162 680T302 725Q366 725 412 699T489 625T535 509T550 360Q550 280 536 212T491 95T414 18T300 -10ZM302 43Q368 43 409 81T471 189T491 358Q491 508
445 590T302 673Q236 673 193 635T130 526T109 358Q109 262 129 191T192 82T302 43ZM257 797Q276 817 298 844T341 899T374 948H442V940Q428 920 403 892T350 836T297 788H257V797Z" />
<glyph unicode="&#xd4;" horiz-adv-x="600" d="M300 -10Q234 -10 187 18T109 95T65 212T50 359Q50 471 78 553T162 680T302 725Q366 725 412 699T489 625T535 509T550 360Q550 280 536 212T491 95T414 18T300 -10ZM302 43Q368 43 409 81T471 189T491 358Q491 508
445 590T302 673Q236 673 193 635T130 526T109 358Q109 262 129 191T192 82T302 43ZM153 797Q172 817 195 844T239 898T273 947H329Q341 926 362 899T406 844T448 797V788H407Q380 810 352 841T300 899Q276 872 249 842T194 788H153V797Z" />
<glyph unicode="&#xd5;" horiz-adv-x="600" d="M300 -10Q234 -10 187 18T109 95T65 212T50 359Q50 471 78 553T162 680T302 725Q366 725 412 699T489 625T535 509T550 360Q550 280 536 212T491 95T414 18T300 -10ZM302 43Q368 43 409 81T471 189T491 358Q491 508
445 590T302 673Q236 673 193 635T130 526T109 358Q109 262 129 191T192 82T302 43ZM129 794Q132 822 139 843T160 878T190 899T229 907Q252 907 271 897T306 874T339 851T374 841Q397 841 413 855T434 908H472Q467 854 441 824T372 794Q349 794 330 804T295 827T262
850T226 860Q204 860 189 846T167 794H129Z" />
<glyph unicode="&#xd6;" horiz-adv-x="600" d="M300 -10Q234 -10 187 18T109 95T65 212T50 359Q50 471 78 553T162 680T302 725Q366 725 412 699T489 625T535 509T550 360Q550 280 536 212T491 95T414 18T300 -10ZM302 43Q368 43 409 81T471 189T491 358Q491 508
445 590T302 673Q236 673 193 635T130 526T109 358Q109 262 129 191T192 82T302 43ZM407 815Q388 815 377 827T366 862Q366 884 377 896T407 908Q426 908 436 896T447 862Q447 840 437 828T407 815ZM194 815Q175 815 165 827T154 862Q154 885 164 896T194 908Q214
908 224 896T235 862Q235 840 225 828T194 815Z" />
<glyph unicode="&#xd7;" horiz-adv-x="600" d="M120 139L86 172L267 353L86 534L119 568L300 386L482 568L515 535L334 353L515 172L482 139L300 319L120 139Z" />
<glyph unicode="&#xd8;" horiz-adv-x="600" d="M106 -33L63 -9L493 743L535 719L106 -33ZM300 -10Q234 -10 187 18T109 95T65 212T50 359Q50 471 78 553T162 680T302 725Q366 725 412 699T489 625T535 509T550 360Q550 280 536 212T491 95T414 18T300 -10ZM302
43Q368 43 409 81T471 189T491 358Q491 508 445 590T302 673Q236 673 193 635T130 526T109 358Q109 262 129 191T192 82T302 43Z" />
<glyph unicode="&#xd9;" horiz-adv-x="600" d="M297 -10Q222 -10 175 21T105 112T83 254V714H141V259Q141 191 156 142T206 68T299 43Q357 43 392 68T444 142T460 259V714H518V252Q518 171 495 112T423 22T297 -10ZM322 788Q304 804 283 823T242 864T205 904T177
940V948H245Q258 927 278 899T321 844T362 797V788H322Z" />
<glyph unicode="&#xda;" horiz-adv-x="600" d="M297 -10Q222 -10 175 21T105 112T83 254V714H141V259Q141 191 156 142T206 68T299 43Q357 43 392 68T444 142T460 259V714H518V252Q518 171 495 112T423 22T297 -10ZM257 797Q276 817 298 844T341 899T374 948H442V940Q428
920 403 892T350 836T297 788H257V797Z" />
<glyph unicode="&#xdb;" horiz-adv-x="600" d="M297 -10Q222 -10 175 21T105 112T83 254V714H141V259Q141 191 156 142T206 68T299 43Q357 43 392 68T444 142T460 259V714H518V252Q518 171 495 112T423 22T297 -10ZM153 797Q172 817 195 844T239 898T273 947H329Q341
926 362 899T406 844T448 797V788H407Q380 810 352 841T300 899Q276 872 249 842T194 788H153V797Z" />
<glyph unicode="&#xdc;" horiz-adv-x="600" d="M297 -10Q222 -10 175 21T105 112T83 254V714H141V259Q141 191 156 142T206 68T299 43Q357 43 392 68T444 142T460 259V714H518V252Q518 171 495 112T423 22T297 -10ZM407 815Q388 815 377 827T366 862Q366 884 377
896T407 908Q426 908 436 896T447 862Q447 840 437 828T407 815ZM194 815Q175 815 165 827T154 862Q154 885 164 896T194 908Q214 908 224 896T235 862Q235 840 225 828T194 815Z" />
<glyph unicode="&#xdd;" horiz-adv-x="600" d="M273 0V275L43 714H107L302 324L495 714H558L329 275V0H273ZM257 797Q276 817 298 844T341 899T374 948H442V940Q428 920 403 892T350 836T297 788H257V797Z" />
<glyph unicode="&#xde;" horiz-adv-x="600" d="M105 0V714H163V578H301Q424 578 483 527T543 374Q543 308 515 258T429 181T282 154H163V0H105ZM275 206Q341 206 387 222T458 274T483 371Q483 452 438 489T294 527H163V206H275Z" />
<glyph unicode="&#xdf;" horiz-adv-x="600" d="M371 -10Q326 -10 293 -1T234 21V75Q263 60 298 50T373 39Q433 39 462 67T492 144Q492 176 482 197T451 235T398 275Q365 298 341 317T303 359T290 412Q290 447 304 469T338 508T379 539T412 573T426 623Q426 668
393 691T299 715Q253 715 220 700T168 652T149 568V0H92V574Q92 640 117 682T189 744T299 765Q357 765 398 749T462 703T485 628Q485 592 471 567T437 525T396 492T361 458T347 414Q347 394 356 379T386 350T438 313Q470 291 495 269T534 218T549 142Q549 96 528
62T468 9T371 -10Z" />
<glyph unicode="&#xe0;" horiz-adv-x="600" d="M250 -10Q170 -10 125 28T80 138Q80 195 109 231T194 287T327 309L446 313V346Q446 428 409 460T300 493Q260 493 222 483T144 452L124 498Q163 518 207 530T303 542Q400 542 450 497T500 355V0H453L446 89H443Q425
59 398 37T334 3T250 -10ZM259 39Q315 39 357 60T423 122T446 217V269L339 265Q274 262 229 248T160 208T136 139Q136 90 168 65T259 39ZM583 606Q565 622 544 641T503 682T466 722T438 758V766H506Q519 745 539 717T582 662T623 615V606H583Z" />
<glyph unicode="&#xe1;" horiz-adv-x="600" d="M250 -10Q170 -10 125 28T80 138Q80 195 109 231T194 287T327 309L446 313V346Q446 428 409 460T300 493Q260 493 222 483T144 452L124 498Q163 518 207 530T303 542Q400 542 450 497T500 355V0H453L446 89H443Q425
59 398 37T334 3T250 -10ZM259 39Q315 39 357 60T423 122T446 217V269L339 265Q274 262 229 248T160 208T136 139Q136 90 168 65T259 39ZM262 615Q281 635 303 662T346 717T379 766H447V758Q433 738 408 710T355 654T302 606H262V615Z" />
<glyph unicode="&#xe2;" horiz-adv-x="600" d="M250 -10Q170 -10 125 28T80 138Q80 195 109 231T194 287T327 309L446 313V346Q446 428 409 460T300 493Q260 493 222 483T144 452L124 498Q163 518 207 530T303 542Q400 542 450 497T500 355V0H453L446 89H443Q425
59 398 37T334 3T250 -10ZM259 39Q315 39 357 60T423 122T446 217V269L339 265Q274 262 229 248T160 208T136 139Q136 90 168 65T259 39ZM158 615Q177 635 200 662T244 716T278 765H334Q346 744 367 717T411 662T453 615V606H412Q385 628 357 659T305 717Q281 690
254 660T199 606H158V615Z" />
<glyph unicode="&#xe3;" horiz-adv-x="600" d="M250 -10Q170 -10 125 28T80 138Q80 195 109 231T194 287T327 309L446 313V346Q446 428 409 460T300 493Q260 493 222 483T144 452L124 498Q163 518 207 530T303 542Q400 542 450 497T500 355V0H453L446 89H443Q425
59 398 37T334 3T250 -10ZM259 39Q315 39 357 60T423 122T446 217V269L339 265Q274 262 229 248T160 208T136 139Q136 90 168 65T259 39ZM134 612Q137 640 144 661T165 696T195 717T234 725Q257 725 276 715T311 692T344 669T379 659Q402 659 418 673T439 726H477Q472
672 446 642T377 612Q354 612 335 622T300 645T267 668T231 678Q209 678 194 664T172 612H134Z" />
<glyph unicode="&#xe4;" horiz-adv-x="600" d="M250 -10Q170 -10 125 28T80 138Q80 195 109 231T194 287T327 309L446 313V346Q446 428 409 460T300 493Q260 493 222 483T144 452L124 498Q163 518 207 530T303 542Q400 542 450 497T500 355V0H453L446 89H443Q425
59 398 37T334 3T250 -10ZM259 39Q315 39 357 60T423 122T446 217V269L339 265Q274 262 229 248T160 208T136 139Q136 90 168 65T259 39ZM412 633Q393 633 382 645T371 680Q371 702 382 714T412 726Q431 726 441 714T452 680Q452 658 442 646T412 633ZM199 633Q180
633 170 645T159 680Q159 703 169 714T199 726Q219 726 229 714T240 680Q240 658 230 646T199 633Z" />
<glyph unicode="&#xe5;" horiz-adv-x="600" d="M250 -10Q170 -10 125 28T80 138Q80 195 109 231T194 287T327 309L446 313V346Q446 428 409 460T300 493Q260 493 222 483T144 452L124 498Q163 518 207 530T303 542Q400 542 450 497T500 355V0H453L446 89H443Q425
59 398 37T334 3T250 -10ZM259 39Q315 39 357 60T423 122T446 217V269L339 265Q274 262 229 248T160 208T136 139Q136 90 168 65T259 39ZM304 609Q260 609 230 635T200 711Q200 759 229 786T304 814Q349 814 379 786T410 712Q410 664 380 637T304 609ZM304 646Q334
646 352 664T370 712Q370 741 352 759T305 778Q276 778 258 760T240 711Q240 682 258 664T304 646Z" />
<glyph unicode="&#xe6;" horiz-adv-x="600" d="M150 -10Q94 -10 61 29T27 139Q27 193 48 229T108 284T203 306L270 309V359Q270 431 246 462T177 493Q154 493 128 484T76 457L56 501Q81 519 114 530T179 542Q232 542 264 515T308 431Q322 483 354 512T434 542Q480
542 511 514T557 433T573 302V261H322Q322 185 337 136T382 63T454 39Q480 39 503 47T557 78V24Q531 6 507 -2T451 -10Q392 -10 354 23T298 120Q281 58 245 24T150 -10ZM158 39Q192 39 217 59T255 118T269 207V265L219 262Q149 257 115 227T81 138Q81 91 101 65T158
39ZM519 308Q519 370 510 411T481 472T429 493Q383 493 355 444T323 308H519Z" />
<glyph unicode="&#xe7;" horiz-adv-x="600" d="M345 -10Q260 -10 203 22T117 114T88 260Q88 354 121 416T216 510T359 542Q400 542 436 534T503 511L487 462Q456 477 424 483T360 490Q291 490 244 463T172 386T147 262Q147 194 168 144T235 68T350 41Q391 41 430
49T498 71V18Q470 6 429 -2T345 -10ZM284 -240Q270 -240 257 -239T233 -234V-195Q244 -198 258 -199T284 -200Q325 -200 347 -187T369 -144Q369 -115 345 -102T272 -85L315 3H357L328 -59Q367 -64 392 -84T417 -143Q417 -188 383 -214T284 -240Z" />
<glyph unicode="&#xe8;" horiz-adv-x="600" d="M337 -10Q247 -10 187 23T98 117T68 260Q68 343 97 406T181 506T316 542Q388 542 436 510T508 422T533 292V259H127Q128 184 152 136T223 64T340 40Q387 40 429 50T513 80V26Q470 8 425 -1T337 -10ZM474 307Q473
364 456 405T403 470T316 493Q239 493 189 445T128 307H474ZM582 606Q564 622 543 641T502 682T465 722T437 758V766H505Q518 745 538 717T581 662T622 615V606H582Z" />
<glyph unicode="&#xe9;" horiz-adv-x="600" d="M337 -10Q247 -10 187 23T98 117T68 260Q68 343 97 406T181 506T316 542Q388 542 436 510T508 422T533 292V259H127Q128 184 152 136T223 64T340 40Q387 40 429 50T513 80V26Q470 8 425 -1T337 -10ZM474 307Q473
364 456 405T403 470T316 493Q239 493 189 445T128 307H474ZM261 615Q280 635 302 662T345 717T378 766H446V758Q432 738 407 710T354 654T301 606H261V615Z" />
<glyph unicode="&#xea;" horiz-adv-x="600" d="M337 -10Q247 -10 187 23T98 117T68 260Q68 343 97 406T181 506T316 542Q388 542 436 510T508 422T533 292V259H127Q128 184 152 136T223 64T340 40Q387 40 429 50T513 80V26Q470 8 425 -1T337 -10ZM474 307Q473
364 456 405T403 470T316 493Q239 493 189 445T128 307H474ZM156 615Q175 635 198 662T242 716T276 765H332Q344 744 365 717T409 662T451 615V606H410Q383 628 355 659T303 717Q279 690 252 660T197 606H156V615Z" />
<glyph unicode="&#xeb;" horiz-adv-x="600" d="M337 -10Q247 -10 187 23T98 117T68 260Q68 343 97 406T181 506T316 542Q388 542 436 510T508 422T533 292V259H127Q128 184 152 136T223 64T340 40Q387 40 429 50T513 80V26Q470 8 425 -1T337 -10ZM474 307Q473
364 456 405T403 470T316 493Q239 493 189 445T128 307H474ZM410 633Q391 633 380 645T369 680Q369 702 380 714T410 726Q429 726 439 714T450 680Q450 658 440 646T410 633ZM197 633Q178 633 168 645T157 680Q157 703 167 714T197 726Q217 726 227 714T238 680Q238
658 228 646T197 633Z" />
<glyph unicode="&#xec;" horiz-adv-x="600" d="M90 0V41L289 50V482L107 491V532H347V50L535 41V0H90ZM578 606Q560 622 539 641T498 682T461 722T433 758V766H501Q514 745 534 717T577 662T618 615V606H578Z" />
<glyph unicode="&#xed;" horiz-adv-x="600" d="M90 0V41L289 50V482L107 491V532H347V50L535 41V0H90ZM513 615Q532 635 554 662T597 717T630 766H698V758Q684 738 659 710T606 654T553 606H513V615Z" />
<glyph unicode="&#xee;" horiz-adv-x="600" d="M90 0V41L289 50V482L107 491V532H347V50L535 41V0H90ZM153 615Q172 635 195 662T239 716T273 765H329Q341 744 362 717T406 662T448 615V606H407Q380 628 352 659T300 717Q276 690 249 660T194 606H153V615Z" />
<glyph unicode="&#xef;" horiz-adv-x="600" d="M90 0V41L289 50V482L107 491V532H347V50L535 41V0H90ZM407 633Q388 633 377 645T366 680Q366 702 377 714T407 726Q426 726 436 714T447 680Q447 658 437 646T407 633ZM194 633Q175 633 165 645T154 680Q154 703
164 714T194 726Q214 726 224 714T235 680Q235 658 225 646T194 633Z" />
<glyph unicode="&#xf0;" horiz-adv-x="600" d="M301 -10Q229 -10 176 19T93 102T63 228Q63 303 93 357T176 440T299 469Q359 469 401 449T469 397L472 398Q458 452 433 500T372 590T292 664T197 721L222 761Q301 725 360 671T458 552T518 414T538 270Q538 135
477 63T301 -10ZM300 39Q359 39 399 64T459 137T480 252Q480 295 463 333T407 396T308 421Q248 421 207 399T143 333T121 227Q121 169 142 127T204 62T300 39ZM204 556L178 593L455 756L481 719L204 556Z" />
<glyph unicode="&#xf1;" horiz-adv-x="600" d="M93 0V532H140L148 437H151Q165 468 189 491T249 528T333 542Q415 542 464 497T513 356V0H455V344Q455 422 421 457T319 493Q236 493 194 442T151 289V0H93ZM139 612Q142 640 149 661T170 696T200 717T239 725Q262
725 281 715T316 692T349 669T384 659Q407 659 423 673T444 726H482Q477 672 451 642T382 612Q359 612 340 622T305 645T272 668T236 678Q214 678 199 664T177 612H139Z" />
<glyph unicode="&#xf2;" horiz-adv-x="600" d="M301 -10Q246 -10 202 9T126 64T79 151T63 267Q63 356 92 417T176 510T302 542Q377 542 429 509T510 414T538 267Q538 203 522 152T475 64T401 9T301 -10ZM300 39Q361 39 400 67T459 147T479 267Q479 334 461 384T403
464T302 493Q214 493 168 433T121 266Q121 198 140 147T200 68T300 39ZM578 606Q560 622 539 641T498 682T461 722T433 758V766H501Q514 745 534 717T577 662T618 615V606H578Z" />
<glyph unicode="&#xf3;" horiz-adv-x="600" d="M301 -10Q246 -10 202 9T126 64T79 151T63 267Q63 356 92 417T176 510T302 542Q377 542 429 509T510 414T538 267Q538 203 522 152T475 64T401 9T301 -10ZM300 39Q361 39 400 67T459 147T479 267Q479 334 461 384T403
464T302 493Q214 493 168 433T121 266Q121 198 140 147T200 68T300 39ZM513 615Q532 635 554 662T597 717T630 766H698V758Q684 738 659 710T606 654T553 606H513V615Z" />
<glyph unicode="&#xf4;" horiz-adv-x="600" d="M301 -10Q246 -10 202 9T126 64T79 151T63 267Q63 356 92 417T176 510T302 542Q377 542 429 509T510 414T538 267Q538 203 522 152T475 64T401 9T301 -10ZM300 39Q361 39 400 67T459 147T479 267Q479 334 461 384T403
464T302 493Q214 493 168 433T121 266Q121 198 140 147T200 68T300 39ZM153 615Q172 635 195 662T239 716T273 765H329Q341 744 362 717T406 662T448 615V606H407Q380 628 352 659T300 717Q276 690 249 660T194 606H153V615Z" />
<glyph unicode="&#xf5;" horiz-adv-x="600" d="M301 -10Q246 -10 202 9T126 64T79 151T63 267Q63 356 92 417T176 510T302 542Q377 542 429 509T510 414T538 267Q538 203 522 152T475 64T401 9T301 -10ZM300 39Q361 39 400 67T459 147T479 267Q479 334 461 384T403
464T302 493Q214 493 168 433T121 266Q121 198 140 147T200 68T300 39ZM129 612Q132 640 139 661T160 696T190 717T229 725Q252 725 271 715T306 692T339 669T374 659Q397 659 413 673T434 726H472Q467 672 441 642T372 612Q349 612 330 622T295 645T262 668T226
678Q204 678 189 664T167 612H129Z" />
<glyph unicode="&#xf6;" horiz-adv-x="600" d="M301 -10Q246 -10 202 9T126 64T79 151T63 267Q63 356 92 417T176 510T302 542Q377 542 429 509T510 414T538 267Q538 203 522 152T475 64T401 9T301 -10ZM300 39Q361 39 400 67T459 147T479 267Q479 334 461 384T403
464T302 493Q214 493 168 433T121 266Q121 198 140 147T200 68T300 39ZM407 633Q388 633 377 645T366 680Q366 702 377 714T407 726Q426 726 436 714T447 680Q447 658 437 646T407 633ZM194 633Q175 633 165 645T154 680Q154 703 164 714T194 726Q214 726 224 714T235
680Q235 658 225 646T194 633Z" />
<glyph unicode="&#xf7;" horiz-adv-x="600" d="M75 329V377H525V329H75ZM299 133Q280 133 270 144T259 179Q259 202 269 213T299 224Q320 224 330 213T340 179Q340 156 330 145T299 133ZM299 481Q280 481 270 493T259 527Q259 550 269 561T299 573Q320 573 330
562T340 527Q340 505 330 493T299 481Z" />
<glyph unicode="&#xf8;" horiz-adv-x="600" d="M110 -30L71 -2L499 561L538 534L110 -30ZM301 -10Q246 -10 202 9T126 64T79 151T63 267Q63 356 92 417T176 510T302 542Q377 542 429 509T510 414T538 267Q538 203 522 152T475 64T401 9T301 -10ZM300 39Q361 39
400 67T459 147T479 267Q479 334 461 384T403 464T302 493Q214 493 168 433T121 266Q121 198 140 147T200 68T300 39Z" />
<glyph unicode="&#xf9;" horiz-adv-x="600" d="M271 -10Q179 -10 134 40T88 187V532H146V196Q146 116 179 78T283 39Q338 39 375 62T431 131T450 243V532H508V0H461L453 92H449Q434 62 410 39T352 3T271 -10ZM578 606Q560 622 539 641T498 682T461 722T433 758V766H501Q514
745 534 717T577 662T618 615V606H578Z" />
<glyph unicode="&#xfa;" horiz-adv-x="600" d="M271 -10Q179 -10 134 40T88 187V532H146V196Q146 116 179 78T283 39Q338 39 375 62T431 131T450 243V532H508V0H461L453 92H449Q434 62 410 39T352 3T271 -10ZM513 615Q532 635 554 662T597 717T630 766H698V758Q684
738 659 710T606 654T553 606H513V615Z" />
<glyph unicode="&#xfb;" horiz-adv-x="600" d="M271 -10Q179 -10 134 40T88 187V532H146V196Q146 116 179 78T283 39Q338 39 375 62T431 131T450 243V532H508V0H461L453 92H449Q434 62 410 39T352 3T271 -10ZM153 615Q172 635 195 662T239 716T273 765H329Q341
744 362 717T406 662T448 615V606H407Q380 628 352 659T300 717Q276 690 249 660T194 606H153V615Z" />
<glyph unicode="&#xfc;" horiz-adv-x="600" d="M271 -10Q179 -10 134 40T88 187V532H146V196Q146 116 179 78T283 39Q338 39 375 62T431 131T450 243V532H508V0H461L453 92H449Q434 62 410 39T352 3T271 -10ZM407 633Q388 633 377 645T366 680Q366 702 377 714T407
726Q426 726 436 714T447 680Q447 658 437 646T407 633ZM194 633Q175 633 165 645T154 680Q154 703 164 714T194 726Q214 726 224 714T235 680Q235 658 225 646T194 633Z" />
<glyph unicode="&#xfd;" horiz-adv-x="600" d="M137 -246Q121 -246 105 -244T75 -237V-189Q88 -193 102 -195T132 -198Q160 -198 179 -187T214 -153T244 -92L279 1L68 532H126L258 192Q273 155 284 124T305 59H308Q315 82 322 103T337 146T354 195L475 532H535L299
-94Q282 -142 262 -176T212 -228T137 -246ZM513 615Q532 635 554 662T597 717T630 766H698V758Q684 738 659 710T606 654T553 606H513V615Z" />
<glyph unicode="&#xfe;" horiz-adv-x="600" d="M93 -240V737H150V509Q150 490 150 471T147 431H150Q164 462 187 487T246 527T329 542Q378 542 417 525T483 473T524 388T538 270Q538 180 512 117T438 22T323 -10Q278 -10 244 4T187 42T150 94H146Q149 68 149 41T150
-13V-240H93ZM314 39Q396 39 437 96T478 272Q478 384 440 438T319 493Q235 493 193 437T150 277V266Q150 155 190 97T314 39Z" />
<glyph unicode="&#xff;" horiz-adv-x="600" d="M137 -246Q121 -246 105 -244T75 -237V-189Q88 -193 102 -195T132 -198Q160 -198 179 -187T214 -153T244 -92L279 1L68 532H126L258 192Q273 155 284 124T305 59H308Q315 82 322 103T337 146T354 195L475 532H535L299
-94Q282 -142 262 -176T212 -228T137 -246ZM407 633Q388 633 377 645T366 680Q366 702 377 714T407 726Q426 726 436 714T447 680Q447 658 437 646T407 633ZM194 633Q175 633 165 645T154 680Q154 703 164 714T194 726Q214 726 224 714T235 680Q235 658 225 646T194
633Z" />
<glyph unicode="&#x2013;" horiz-adv-x="600" d="M100 248V300H500V248H100Z" />
<glyph unicode="&#x2014;" horiz-adv-x="600" d="M0 248V300H600V248H0Z" />
<glyph unicode="&#x2018;" horiz-adv-x="600" d="M240 479Q247 517 259 558T287 639T319 714H360Q348 678 337 635T317 548T303 469H246L240 479Z" />
<glyph unicode="&#x2019;" horiz-adv-x="600" d="M228 469Q238 497 246 529T262 593T275 657T284 714H346L352 704Q345 666 333 626T305 545T273 469H228Z" />
<glyph unicode="&#x201a;" horiz-adv-x="600" d="M230 -134Q243 -88 253 -44T271 43T285 123H352L358 111Q351 82 343 51T324 -12T302 -75T278 -134H230Z" />
<glyph unicode="&#x201c;" horiz-adv-x="600" d="M416 479Q423 517 435 558T463 639T495 714H536Q524 678 513 635T493 548T479 469H422L416 479ZM321 479Q328 517 340 558T368 639T400 714H441Q429 678 418 635T398 548T384 469H327L321 479Z" />
<glyph unicode="&#x201d;" horiz-adv-x="600" d="M440 704Q433 666 421 625T393 545T361 469H320Q333 506 344 549T364 636T377 714H434L440 704ZM279 704Q271 666 259 625T231 545T200 469H159Q172 506 183 549T202 636T215 714H273L279 704Z" />
<glyph unicode="&#x201e;" horiz-adv-x="600" d="M329 -134Q342 -88 352 -44T370 43T384 123H451L457 111Q450 82 442 51T423 -12T401 -75T377 -134H329ZM421 -134Q434 -88 444 -44T462 43T476 123H543L549 111Q542 82 534 51T515 -12T493 -75T469 -134H421Z" />
<glyph unicode="&#x2022;" horiz-adv-x="600" d="M300 270Q262 270 240 294T218 365Q218 414 240 437T300 460Q325 460 343 450T372 418T382 365Q382 335 372 314T344 281T300 270Z" />
<glyph unicode="&#x2039;" horiz-adv-x="600" d="M360 72L200 265V278L360 472L400 448L261 272L400 96L360 72Z" />
<glyph unicode="&#x203a;" horiz-adv-x="600" d="M240 488L400 295V282L240 88L200 112L339 288L200 464L240 488Z" />
</font>
</defs>
</svg>
